TORRENTS43.COM

Скачать Футбол. Лига Чемпионов 2016-2017. 2-й тур. День №1. Обзор матчей (27.09.2016) HDTV [H.264/1080i]


Футбол. Лига Чемпионов 2016-2017. 2-й тур. День №1. Обзор матчей (27.09.2016) HDTV [H.264/1080i]
Телекомпания: Матч! Футбол 1 HD

Жанр: Спорт
Язык озвучки: Русский (Кирилл Дементьев)

Описание:
Обзор матчей Лиги Чемпионов за 27 сентября 2016 года:

ЦСКА - Тоттенхэм
Боруссия Д - Реал Мадрид
Монако - Байер
Динамо Загреб - Ювентус
Севилья - Лион
Лестер - Порту
Копенгаген - Брюгге
Спортинг - Легия

Продолжительность: 00:47:09
Качество видео: HDTV
Формат видео: TS

Видео: AVC/H.264, 1920x1080 (16:9), ~9752 Kbps, 25 fps
Аудио: MP2, 2 ch, 48.0 KHz, 192 Kbps

Mediainfo:

Код:
General
ID                          : 1 (0x1)
Complete name               : F:\SPORT\Футбол\Лига Чемпионов 2016-2017. Групповой раунд. 2 тур. 1-й день. Обзор.HDTV.1080i.ts
Format                      : MPEG-TS
File size                   : 3.45 GiB
Duration                    : 47 min
Overall bit rate mode       : Variable
Overall bit rate            : 10.5 Mb/s

Video
ID                          : 325 (0x145)
Menu ID                     : 14105 (0x3719)
Format                      : AVC
Format/Info                 : Advanced Video Codec
Format profile              : High@L4
Format settings, CABAC      : Yes
Format settings, ReFrames   : 4 frames
Codec ID                    : 27
Duration                    : 47 min
Bit rate                    : 9 752 kb/s
Width                       : 1 920 pixels
Height                      : 1 080 pixels
Display aspect ratio        : 16:9
Frame rate                  : 25.000 FPS
Standard                    : Component
Color space                 : YUV
Chroma subsampling          : 4:2:0
Bit depth                   : 8 bits
Scan type                   : Interlaced
Scan type, store method     : Separated fields
Scan order                  : Top Field First
Bits/(Pixel*Frame)          : 0.188
Stream size                 : 3.21 GiB (93%)
Color range                 : Limited
Color primaries             : BT.709
Transfer characteristics    : BT.709
Matrix coefficients         : BT.709

Audio
ID                          : 405 (0x195)
Menu ID                     : 14105 (0x3719)
Format                      : MPEG Audio
Format version              : Version 1
Format profile              : Layer 2
Codec ID                    : 3
Duration                    : 47 min
Bit rate mode               : Constant
Bit rate                    : 192 kb/s
Channel(s)                  : 2 channels
Sampling rate               : 48.0 kHz
Compression mode            : Lossy
Stream size                 : 64.8 MiB (2%)
Language                    : Russian
Скриншоты:



Детали торрента:
Название:Футбол. Лига Чемпионов 2016-2017. 2-й тур. День №1. Обзор матчей (27.09.2016) HDTV [H.264/1080i]
Дата добавления:28 Сен 2016 20:12:07
Размер:3,45 GB
Раздают:
Качают:0
Форум:Архив Документалистики и TV

All rights reserved © 2015-2018