TORRENTS43.COM

Скачать Профессор Осипов А.И. Цикл видеобесед "Добротолюбие" (2016) WEB-DL [H.264/1080р-LQ] (выпуски 1-4)


Цикл видеобесед «Добротолюбие» профессор Осипов А.И (2016) WEB-DL [H.264/1080р-LQ]
Телекомпания: Россия / Портал «Православие.ру»
Жанр: видеобеседа

Описание:
Портал «Православие.ру» начинает новый проект – цикл видеобесед «Добротолюбие», которые будет вести профессор Алексей Ильич Осипов. Беседы посвящены тому, как построить жизнь по-христиански, чтобы удостоиться Царствия Божия.

Продолжительность: 4 х ~00:20:00
Качество видео: WEB-DL

Видео: AVC/H.264, 1920*1080 (16:9), ~2022 Кбит/сек
Аудио: AAC, 2 ch, 126 Кбит/сек

Mediainfo:

Код:

Общее
Уникальный идентификатор                 : 109427281820598246776302660570414859825 (0x5252ED897C673F48FA2640B235F84631)
Полное имя                               : E:\Цикл видеобесед «Добротолюбие» _ Осипов А.И\О смерти. Профессор Алексей Ильич Осипов.mkv
Формат                                   : Matroska
Версия формата                           : Version 4 / Version 2
Размер файла                             : 326 Мбайт
Продолжительность                        : 21 м.
Общий поток                              : 2149 Кбит/сек
Дата кодирования                         : UTC 2016-10-05 16:01:59
Программа кодирования                    : mkvmerge v9.4.2 ('So High') 64bit
Библиотека кодирования                   : libebml v1.3.4 + libmatroska v1.4.5

Видео
Идентификатор                            : 1
Формат                                   : AVC
Формат/Информация                        : Advanced Video Codec
Профиль формата                          : High@L4
Параметр CABAC формата                   : Да
Параметр ReFrames формата                : 3 кадра
Идентификатор кодека                     : V_MPEG4/ISO/AVC
Продолжительность                        : 21 м.
Битрейт                                  : 2022 Кбит/сек
Ширина                                   : 1920 пикселей
Высота                                   : 1080 пикселей
Соотношение сторон                       : 16:9
Режим частоты кадров                     : Постоянный
Частота кадров                           : 25,000 кадров/сек
Цветовое пространство                    : YUV
Субдискретизация насыщенности            : 4:2:0
Битовая глубина                          : 8 бит
Тип развёртки                            : Прогрессивная
Бит/(Пиксели*Кадры)                      : 0.039
Размер потока                            : 306 Мбайт (94%)
Default                                  : Да
Forced                                   : Нет
Цветовой диапазон                        : Limited
Основные цвета                           : BT.709
Характеристики трансфера                 : BT.709
Коэффициенты матрицы                     : BT.709

Аудио
Идентификатор                            : 2
Формат                                   : AAC
Формат/Информация                        : Advanced Audio Codec
Профиль формата                          : LC
Идентификатор кодека                     : A_AAC
Продолжительность                        : 21 м.
Битрейт                                  : 126 Кбит/сек
Каналы                                   : 2 канала
Расположение каналов                     : Front: L R
Частота                                  : 44,1 КГц
Частота кадров                           : 43,066 кадра/сек (1024 spf)
Метод сжатия                             : С потерями
Размер потока                            : 19,0 Мбайт (6%)
Язык                                     : Russian
Default                                  : Да
Forced                                   : Нет

Содержание

Зачем я живу ? - Каждый думающий человек рано или поздно задается вопросом: зачем я живу? О том, каким будет христианский ответ, – первая беседа цикла.
Один ли Бог ? - Об опасных тенденциях слияния разнообразных религий и верований в одну «единую религию будущего» и о том, почему в корне неверно утверждение, что все религии поклоняются одному Богу, но только по-своему, рассказывает профессор Алексей Ильич Осипов.
Страх Божий - О том, чего страшится имеющий страх Божий, как христианство изменило представление о Боге и почему первым в рай вошел разбойник, рассказывает профессор Алексей Ильич Осипов.
О смерти - О том, что такое смерть с христианской точки зрения, почему так важно иметь правильное представление о жизни и смерти и о посмертной участи людей, рассказывает профессор Алексей Ильич Осипов.
Скриншоты:


Детали торрента:
Название:Профессор Осипов А.И. Цикл видеобесед "Добротолюбие" (2016) WEB-DL [H.264/1080р-LQ] (выпуски 1-4)
Дата добавления:06 Окт 2016 08:05:44
Размер:1,27 GB
Раздают:4
Качают:0
Форум:Религии и культы

All rights reserved © 2015-2018