TORRENTS43.COM

Скачать Shuumatsu no Izetta / Izetta: The Last Witch / Последняя ведьма Изетта [2016, TV, 12 ep] WEB-DL 720p Raw+Rus


Shuumatsu no Izetta / Izetta: The Last Witch / Последняя ведьма Изетта
Жанр: приключения, фэнтези
Тип: TV-сериал
Продолжительность: 12 эпизодов по 25 минут
Выпуск: c 01.10.2016 по 17.12.2016
Сценарий: Ёсино Хироюки
Режиссер: Фудзимори Масая
Производство: Asia-Do
Информационные ссылки: AniDB || World Art || MAL || ANN
Релиз подготовлен группой AniDub
  • Перевод: Miss Sherlockian
  • Озвучивание: Гамлетка Цезаревна, Nika Lenina, 9й Неизвестный
  • Тайминг и работа со звуком: NeSqUiK

Описание:
Двадцатый век, 1939 год. Империалистическая нация Германия начинает войну за господство над всем миром. В 1940 году линия фронта подходит к границам небольшого княжества Елистат, находящегося у подножья Альп.
Фине, единственная дочь тяжело больного короля Рудольфа III, вынуждена взять на себя управление обороной княжества. Судьба сводит ее с девушкой по имени Изетта — юной ведьмой, одной из последних в Европе. Вместе им предстоит решить непростую задачу — как защитить страну от превосходящих сил противника.

Качество: WEB-DLRip | Энкод: HorribleSubs
Формат: MKV
Видео: x264, 1280x720, ~1 776 kbps, 23.976 fps
Аудио: AAC, 128 kbps, 44.1 kHz, 2 ch
Аудио: AAC, 192 kbps, 48.0 kHz, 2 ch
Субтитры: ASS, Встроенные, Полные | Надписи «torrents43.comime»
Переводчик/Оформление: kvaking | Редактор/Тайм-код: ElSwanko

Список эпизодов:

01. Начало войны
02. Стрельба и шрамы
03. Меч в небесах
04. Секрет ведьмы
05. Фальшивое чудо
06. Тихий денёк…
07. Сражение в Согне-фьорде
08. Жестокая сказка
09. Огненный Зеллунский коридор
10. Железный молот ведьм
11. Финэ
12. Изетта

Тех. параметры:

General
Unique ID : 183972239544441270919930863113540279936 (0x8A67C3B6C2D345848BFE3F91AED11E80)
Complete name : Shuumatsu no Izetta [AniDub]\Shuumatsu no Izetta - 01 (1280x720 x264 AAC].mkv
Format : Matroska
Format version : Version 4 / Version 2
File size : 388 MiB
Duration : 25 min 45 s
Overall bit rate : 2 104 kb/s
Encoded date : UTC 2016-10-15 10:10:50
Writing application : mkvmerge v9.4.2 ('So High') 64bit
Writing library : libebml v1.3.4 + libmatroska v1.4.5
Attachments : times.ttf / trebucbd.ttf / trebucit.ttf

Video
ID : 1
Format : AVC
Format/Info : Advanced Video Codec
Format profile : High@L4
Format settings, CABAC : Yes
Format settings, ReFrames : 6 frames
Codec ID : V_MPEG4/ISO/AVC
Duration : 25 min 45 s
Bit rate : 1 776 kb/s
Width : 1 280 pixels
Height : 720 pixels
Display aspect ratio : 16:9
Frame rate mode : Constant
Frame rate : 23.976 (23976/1000) FPS
Color space : YUV
Chroma subsampling : 4:2:0
Bit depth : 8 bits
Scan type : Progressive
Bits/(Pixel*Frame) : 0.080
Stream size : 327 MiB (84%)
Writing library : x264 core 120 r2120 0c7dab9
Encoding settings : cabac=1 / ref=6 / deblock=1:1:1 / analyse=0x3:0x113 / me=umh / subme=8 / psy=1 / psy_rd=0.40:0.00 / mixed_ref=1 / me_range=16 / chroma_me=1 / trellis=1 / 8x8dct=1 / cqm=0 / deadzone=21,11 / fast_pskip=1 / chroma_qp_offset=-2 / threads=4 / sliced_threads=0 / nr=0 / decimate=1 / interlaced=0 / bluray_compat=0 / constrained_intra=0 / bframes=3 / b_pyramid=2 / b_adapt=2 / b_bias=0 / direct=3 / weightb=1 / open_gop=0 / weightp=2 / keyint=250 / keyint_min=23 / scenecut=40 / intra_refresh=0 / rc_lookahead=50 / rc=2pass / mbtree=1 / bitrate=1776 / ratetol=1.0 / qcomp=0.60 / qpmin=0 / qpmax=69 / qpstep=4 / cplxblur=20.0 / qblur=0.5 / vbv_maxrate=3552 / vbv_bufsize=8880 / nal_hrd=none / ip_ratio=1.40 / aq=1:0.60
Language : Japanese
Default : Yes
Forced : No

Audio #1
ID : 2
Format : AAC
Format/Info : Advanced Audio Codec
Format profile : LC
Codec ID : A_AAC
Duration : 25 min 45 s
Bit rate : 192 kb/s
Channel(s) : 2 channels
Channel positions : Front: L R
Sampling rate : 48.0 kHz
Frame rate : 46.875 FPS (1024 spf)
Compression mode : Lossy
Stream size : 35.4 MiB (9%)
Title : AniDub
Language : Russian
Default : Yes
Forced : No

Audio #2
ID : 3
Format : AAC
Format/Info : Advanced Audio Codec
Format profile : LC
Codec ID : A_AAC
Duration : 25 min 45 s
Bit rate : 128 kb/s
Channel(s) : 2 channels
Channel positions : Front: L R
Sampling rate : 44.1 kHz
Frame rate : 43.066 FPS (1024 spf)
Compression mode : Lossy
Stream size : 23.6 MiB (6%)
Title : Original
Language : Japanese
Default : No
Forced : No

Text #1
ID : 4
Format : ASS
Codec ID : S_TEXT/ASS
Codec ID/Info : Advanced Sub Station Alpha
Duration : 10 s 720 ms
Bit rate : 202 b/s
Count of elements : 3
Compression mode : Lossless
Stream size : 271 Bytes (0%)
Title : Надписи
Language : Russian
Default : Yes
Forced : No

Text #2
ID : 5
Format : ASS
Codec ID : S_TEXT/ASS
Codec ID/Info : Advanced Sub Station Alpha
Duration : 25 min 39 s
Bit rate : 106 b/s
Count of elements : 271
Compression mode : Lossless
Stream size : 20.0 KiB (0%)
Title : Субтитры
Language : Russian
Default : No
Forced : No


Детали торрента:
Название:Shuumatsu no Izetta / Izetta: The Last Witch / Последняя ведьма Изетта [2016, TV, 12 ep] WEB-DL 720p Raw+Rus
Дата добавления:07 Янв 2017 00:59:41
Размер:4,42 GB
Раздают:1
Качают:0
Форум:Аниме с озвучкой (HD)

All rights reserved © 2015-2018