TORRENTS43.COM

Скачать Сверхъестественное / Supernatural (2016) WEB-DLRip (сезон 12, серии 1-23 из 23) LostFilm


Сверхъестественное / Supernatural (2016) WEB-DLRip (сезон 12, серии 1-23 из 23)
«Небесная справедливость в действии»

Производство: США / Kripke Enterprises, Warner Bros. Television, Wonderland Sound and Vision
Жанр: ужасы, фэнтези, драма

Режиссер: Роберт Сингер, Филип Сгриккиа, Ким Мэннерс
Актеры: Джаред Падалеки, Дженсен Эклс, Джим Бивер, Миша Коллинз, Марк Шеппард, Марк Пеллегрино, Женевьев Падалеки, Кэти Кэссиди, Джеймс Патрик Стюарт, Саманта Феррис и др.

Описание:
Двенадцатый сезон самого длительного мистического сериала в истории американского телевидения.


Возраст: 16+ (зрителям, достигшим 16 лет)

Продолжительность: ~00:42:00 серия
Качество видео: WEB-DLRip
Перевод: Многоголосый закадровый, профессиональный - LostFilm

Видео: XviD, 720x400 (16:9), ~1500 kbps
Аудио 1: MP3, 48,0 kHz, 2 ch, 128 kbps — русский, многоголосый закадровый
Аудио 2: MP3, 48,0 kHz, 2 ch, 128 kbps — английский

MediaInfo


Общее
Полное имя : D:\Сверхъестественное (сезон 12) Supernatural (2016) WEB-DLRip - LostFilm\Supernatural.S12E01.WEB-DLRip.Rus.Eng.DV.LostFilm.avi
Формат : AVI
Формат/Информация : Audio Video Interleave
Размер файла : 531 Мбайт
Продолжительность : 41 м. 55 с.
Общий поток : 1771 Кбит/сек
Название фильма : Supernatural.S12E01.WEB-DLRip.Rus.Eng.DV.LostFilm / torrents43.com />Программа кодирования : VirtualDubModRus 1.5.10.2 (build 2542/release)
Библиотека кодирования : VirtualDubMod build 2542/release

Видео
Идентификатор : 0
Формат : MPEG-4 Visual
Профиль формата : Advanced Simple@L5
Параметр BVOP формата : 2
Параметр QPel формата : Нет
Параметр GMC формата : Без точки перехода
Параметр матрицы формата : Default (H.263)
Идентификатор кодека : XVID
Идентификатор кодека/Подсказка : XviD
Продолжительность : 41 м. 55 с.
Битрейт : 1501 Кбит/сек
Ширина : 720 пикселей
Высота : 400 пикселей
Соотношение сторон : 16:9
Частота кадров : 23,976 (24000/1001) кадра/сек
Цветовое пространство : YUV
Субдискретизация насыщенности : 4:2:0
Битовая глубина : 8 бит
Тип развёртки : Прогрессивная
Метод сжатия : С потерями
Бит/(Пиксели*Кадры) : 0.217
Размер потока : 450 Мбайт (85%)
Заголовок : Rip by DriverV / torrents43.com />Библиотека кодирования : XviD 64

Аудио #1
Идентификатор : 1
Формат : MPEG Audio
Версия формата : Version 1
Профиль формата : Layer 3
Режим : Joint stereo
Идентификатор кодека : 55
Идентификатор кодека/Подсказка : MP3
Продолжительность : 41 м. 55 с.
Вид битрейта : Постоянный
Битрейт : 128 Кбит/сек
Каналы : 2 канала
Частота : 48,0 КГц
Метод сжатия : С потерями
Размер потока : 38,4 Мбайт (7%)
Выравнивание : Соединение по промежуткам
Продолжительность промежутка : 42 мс. (1,00 видеокадр)
Время предзагрузки промежутка : 504 мс.

Аудио #2
Идентификатор : 2
Формат : MPEG Audio
Версия формата : Version 1
Профиль формата : Layer 3
Режим : Joint stereo
Идентификатор кодека : 55
Идентификатор кодека/Подсказка : MP3
Продолжительность : 41 м. 55 с.
Вид битрейта : Постоянный
Битрейт : 128 Кбит/сек
Каналы : 2 канала
Частота : 48,0 КГц
Метод сжатия : С потерями
Размер потока : 38,4 Мбайт (7%)
Выравнивание : Соединение по промежуткам
Продолжительность промежутка : 42 мс. (1,00 видеокадр)
Время предзагрузки промежутка : 504 мс.

Список серий

01. Keep Calm and Carry On / Сохраняйте спокойствие и продолжайте в том же духе
02. Mamma Mia / Мамма миа
03. The Foundry / Детский крик
04. American Nightmare / Американский ночной кошмар
05. The One You've Been Waiting For / Тот, кого так долго ждали
06. Celebrating the Life of Asa Fox / Почтить память Эйсы Фокса
07. Rock Never Dies / Рок никогда не умрёт
08. LOTUS / Полный писец
09. First Blood / Первая кровь
10. Lily Sunder Has Some Regrets / Сожаления Лили Сандер
11. Regarding Dean / И это всё о Дине
12. Stuck in the Middle (With You) / Совсем запутался с вами
13. Family Feud / Семейная вражда
14. The Raid / Рейд
15. Somewhere Between Heaven and Hell / Где-то между адом и раем
16. Ladies Drink Free / Дамам выпивка бесплатно
17. The British Invasion / Британское вторжение
18. The Memory Remains / Пережитки прошлого
19. The Future / Будущее
20. Twigs and Twine and Tasha Banes / Прутики-верёвочки и Таша Бейнс
21. There's Something About Mary / Кое-что о Мэри
22. Who We Are / Кто мы такие
23. All Along the Watchtower / Всегда на страже

Дополнительная информация

"Чистый" кадр. Вступительная заставка и логотип LostFilm отсутствуют.
Скриншоты:



Все одноименные релизы в Клубе

Смотреть Online

http://moonwalk.cc/serial/39c1d4448a667351463544346a7f79ca/iframe
Детали торрента:
Название:Сверхъестественное / Supernatural (2016) WEB-DLRip (сезон 12, серии 1-23 из 23) LostFilm
Дата добавления:24 Май 2017 03:08:09
Размер:12 GB
Раздают:12
Качают:2
Форум:Сверхъестественное / Supernatural

All rights reserved © 2015-2018