TORRENTS43.COM

Скачать Сверхъестественное / Supernatural (2016-2017) HDTVRip (сезон 12, серии 1-23 из 23) DreamRecords


Сверхъестественное / Supernatural (2016-2017) HDTVRip (сезон 12, серии 1-23 из 23)
«Небесная справедливость в действии»

Производство: США / Kripke Enterprises, Warner Bros. Television, Wonderland Sound and Vision
Жанр: ужасы, фэнтези, драма

Режиссер: Роберт Сингер, Филип Сгриккиа, Ким Мэннерс
Актеры: Джаред Падалеки, Дженсен Эклс, Джим Бивер, Миша Коллинз, Марк Шеппард, Марк Пеллегрино, Женевьев Падалеки, Кэти Кэссиди, Джеймс Патрик Стюарт, Саманта Феррис и др.

Описание:
Сериал рассказывает о приключениях братьев Сэма и Дина Винчестеров, которые путешествуют по Соединённым Штатам на чёрном автомобиле Chevrolet Impala 1967 года, расследуют паранормальные явления, многие из которых основаны на американских городских легендах и фольклоре, и сражаются с порождениями зла, такими как демоны и призраки.


Возраст: 16+ (зрителям, достигшим 16 лет)

Продолжительность: ~00:42:00 серия
Качество видео: HDTVRip
Перевод: Многоголосый закадровый, профессиональный - DreamRecords

Видео: Xvid, 720x400 (16:9), ~1295 Kbps
Аудио: MP3, 2 ch, 192 Kbps

Mediainfo:


Общее
Полное имя :Supernatural.S12E01.400p.XviD-[DreamRecords].avi
Формат : AVI
Формат/Информация : Audio Video Interleave
Размер файла : 452 Мбайт
Продолжительность : 42 м.
Общий поток : 1496 Кбит/сек
Программа кодирования : VirtualDubModRus 1.5.10.2 (build 2542/release)
Библиотека кодирования : VirtualDubMod build 2542/release

Видео
Идентификатор : 0
Формат : MPEG-4 Visual
Профиль формата : Advanced Simple@L5
Параметр BVOP формата : 1
Параметр QPel формата : Нет
Параметр GMC формата : Без точки перехода
Параметр матрицы формата : Default (MPEG)
Идентификатор кодека : XVID
Идентификатор кодека/Подсказка : XviD
Продолжительность : 42 м.
Битрейт : 1295 Кбит/сек
Ширина : 720 пикселей
Высота : 400 пикселей
Соотношение сторон : 16:9
Частота кадров : 23,976 кадра/сек
Цветовое пространство : YUV
Субдискретизация насыщенности : 4:2:0
Битовая глубина : 8 бит
Тип развёртки : Прогрессивная
Метод сжатия : С потерями
Бит/(Пиксели*Кадры) : 0.188
Размер потока : 391 Мбайт (87%)
Библиотека кодирования : XviD 73

Аудио
Идентификатор : 1
Формат : MPEG Audio
Версия формата : Version 1
Профиль формата : Layer 3
Режим : Joint stereo
Идентификатор кодека : 55
Идентификатор кодека/Подсказка : MP3
Продолжительность : 42 м.
Вид битрейта : Постоянный
Битрейт : 192 Кбит/сек
Каналы : 2 канала
Частота : 48,0 КГц
Метод сжатия : С потерями
Размер потока : 58,0 Мбайт (13%)
Выравнивание : Соединение по промежуткам
Продолжительность промежутка : 42 мс. (1,00 видеокадр)
Время предзагрузки промежутка : 504 мс.

Подготовка релиза

Автор перевода: Ольга Гатилина
Голоса: Владимир Чистохин, Владислав Данилов, Анастасия Флигина, Михаил Алексеев, Светлана Чистохина
Монтаж и сведение звука: Алексей Фокин
Скриншоты:


Все одноименные релизы в Клубе

Смотреть Online

http://moonwalk.cc/serial/39c1d4448a667351463544346a7f79ca/iframe
Детали торрента:
Название:Сверхъестественное / Supernatural (2016-2017) HDTVRip (сезон 12, серии 1-23 из 23) DreamRecords
Дата добавления:20 Май 2017 09:59:52
Размер:10,1 GB
Раздают:7
Качают:1
Форум:Сверхъестественное / Supernatural

All rights reserved © 2015-2018