TORRENTS43.COM

Скачать Надоеда / The Meddler (2015) BDRemux [H.264/1080p]


Мама-прилипала / The Meddler (2015) BDRemux [H.264/1080p]
Производство: США
Жанр: Драма, Мелодрама, Комедия

Режиссер: Лорин Скафария
Продюсер: Пол Грин, Стив Голин, Фиона Уолш
Актеры: Сьюзен Сарандон, Роуз Бирн, Дж.К. Симмонс, Джеррод Кармайкл, Сесили Стронг, Люси Панч, Майкл МакКин, Джейсон Риттер, Сара Бэйкер, Кейси Уилсон.

Описание:
Пожилая вдова из Нью-Йорка следует за своей дочерью в Лос-Анджелес в надежде начать новую жизнь после смерти мужа.


Возраст: 16+ (зрителям, достигшим 16 лет)
Рейтинг MPAA: PG-13 (детям до 13 лет просмотр нежелателен)
Дата мировой премьеры: 14 сентября 2015
Дата российской премьеры: 23 сентября 2016

Продолжительность: 01:43:42
Качество видео: BDRemux
Перевод: Многоголосый закадровый, профессиональный (Лицензия R5)
Язык субтитров: Английский
Вид субтитров: Вшитые отключаемые

Видео: AVC/H.264, 1920х1080p, 23.976 fps, 24.9 Mbps
Аудио AC3, 6 ch, 384 Kbps - Русский
Аудио DTS-HD MA, 6 ch, 2241 Kbps - Английский

Mediainfo:

Код: выделить все
General
Unique ID : 220076223215832169112609641102100161724 (0xA591238A9E5CE75C835E36CB3E8864BC)
Complete name : H:VideoThe.Meddler.2015.BDREMUX.1080p.ExKinoRay.mkv
Format : Matroska
Format version : Version 4 / Version 2
File size : 19.9 GiB
Duration : 1 h 43 min
Overall bit rate mode : Variable
Overall bit rate : 27.6 Mb/s
Movie name : build by ***селезень***
Encoded date : UTC 2016-10-20 04:26:58
Writing application : mkvmerge v8.3.0 ('Over the Horizon') 64bit
Writing library : libebml v1.3.1 + libmatroska v1.4.2

Video
ID : 1
Format : AVC
Format/Info : Advanced Video Codec
Format profile : High@L4.1
Format settings, CABAC : Yes
Format settings, ReFrames : 2 frames
Codec ID : V_MPEG4/ISO/AVC
Duration : 1 h 43 min
Bit rate mode : Variable
Bit rate : 24.9 Mb/s
Width : 1 920 pixels
Height : 1 080 pixels
Display aspect ratio : 16:9
Frame rate mode : Constant
Frame rate : 23.976 (24000/1001) FPS
Color space : YUV
Chroma subsampling : 4:2:0
Bit depth : 8 bits
Scan type : Progressive
Bits/(Pixel*Frame) : 0.501
Stream size : 18.0 GiB (90%)
Title : build by ***селезень***
Language : English
Default : Yes
Forced : No

Audio #1
ID : 2
Format : AC-3
Format/Info : Audio Coding 3
Mode extension : CM (complete main)
Format settings, Endianness : Big
Codec ID : A_AC3
Duration : 1 h 43 min
Bit rate mode : Constant
Bit rate : 384 kb/s
Channel(s) : 6 channels
Channel positions : Front: L C R, Side: L R, LFE
Sampling rate : 48.0 kHz
Frame rate : 31.250 FPS (1536 spf)
Compression mode : Lossy
Stream size : 284 MiB (1%)
Title : R5
Language : Russian
Default : Yes
Forced : No

Audio #2
ID : 3
Format : DTS
Format/Info : Digital Theater Systems
Format profile : MA / Core
Mode : 16
Format settings, Endianness : Big
Codec ID : A_DTS
Duration : 1 h 43 min
Bit rate mode : Variable / Constant
Bit rate : 2 241 kb/s / 1 509 kb/s
Channel(s) : 6 channels
Channel positions : Front: L C R, Side: L R, LFE
Sampling rate : 48.0 kHz
Frame rate : 93.750 FPS (512 spf)
Bit depth : 16 bits
Compression mode : Lossless / Lossy
Stream size : 1.62 GiB (8%)
Title : Original
Language : English
Default : No
Forced : No

Text #1
ID : 4
Format : UTF-8
Codec ID : S_TEXT/UTF8
Codec ID/Info : UTF-8 Plain Text
Duration : 1 h 37 min
Bit rate : 79 b/s
Count of elements : 1565
Stream size : 56.7 KiB (0%)
Title : Full
Language : English
Default : No
Forced : No

Text #2
ID : 5
Format : UTF-8
Codec ID : S_TEXT/UTF8
Codec ID/Info : UTF-8 Plain Text
Duration : 1 h 38 min
Bit rate : 81 b/s
Count of elements : 1662
Stream size : 58.9 KiB (0%)
Title : SDH
Language : English
Default : No
Forced : No

Menu
00:00:00.000 : en:00:00:00.000
00:03:13.443 : en:00:03:13.443
00:10:46.354 : en:00:10:46.354
00:16:18.644 : en:00:16:18.644
00:21:40.216 : en:00:21:40.216
00:27:52.671 : en:00:27:52.671
00:32:08.510 : en:00:32:08.510
00:37:58.985 : en:00:37:58.985
00:42:49.442 : en:00:42:49.442
00:48:28.989 : en:00:48:28.989
00:56:45.527 : en:00:56:45.527
01:04:56.643 : en:01:04:56.643
01:12:57.206 : en:01:12:57.206
01:18:40.591 : en:01:18:40.591
01:26:26.807 : en:01:26:26.807
01:33:12.670 : en:01:33:12.670
Скриншоты:


Все одноименные релизы в Клубе
Детали торрента:
Название:Надоеда / The Meddler (2015) BDRemux [H.264/1080p]
Дата добавления:20 Окт 2016 16:09:13
Размер:19,9 GB
Раздают:1
Качают:0
Форум:Зарубежные Фильмы (HD, UHD-LQ)

All rights reserved © 2015-2018