TORRENTS43.COM

Скачать The Weeknd - False Alarm (2016) WEB-DL [MPEG-4/1080p-LQ]


The Weeknd - False Alarm (2016) WEB-DL [MPEG-4/1080p-LQ]
Год выпуска: 2016
Страна: Канада
Исполнитель: The Weeknd
Жанр: Pop, RnB

Описание:
Режиссер российско-американского фильма «Хардкор» Илья Найшуллер снял клип для канадского певца The Weeknd.
Россиянин Илья Найшуллер прославился вирусными музыкальными видео своей группы Biting Elbows, а в 2016 году под опекой Тимура Бекмамбетова дебютировал в Голливуде фильмом «Хардкор» — боевиком, снятым целиком от первого лица. В «False Alarm» использован ровно тот же прием: все происходящее показано глазами участника событий. Видео рассказывает о банде, которая в очень жестокой манере грабит банк, захватывает заложницу, убегает от полиции и так далее. В клипе очень много насилия — детей от экранов лучше убрать. Советуем дождаться финала: там выясняется, во-первых, важная подробность про личность главаря преступников, а во-вторых, судьба захваченной ими девушки, которую вообще-то очень жалко.

Релиз от: karfagen1975
Продолжительность: 00:05:45
Качество видео: WEB-DL 1080p

Видео: MPEG4, DivX 4, 1920x1080 (16:9), 23.976 fps, 9 500 Kbps (0.191 bit/pixel)
Аудио: MP3, 44.1 KHz, 2 ch, 256 Kbps, CBR (English)

Mediainfo:


General
Unique ID : 193760997785995017826574322230376177548 (0x91C502C1C28132AD93F5ED3BDC769F8C)
Complete name : D:\The.Weeknd.False.Alarm.2016.WEB-DL.1080p.torrents43.comv
Format : Matroska
Format version : Version 4 / Version 2
File size : 410 MiB
Duration : 5 min 45 s
Overall bit rate : 9 954 kb/s
Encoded date : UTC 2016-10-20 13:03:41
Writing application : mkvmerge v9.5.0 ('Quiet Fire') 64bit
Writing library : libebml v1.3.4 + libmatroska v1.4.5

Video
ID : 1
Format : MPEG-4 Visual
Format profile : Simple@L1
Format settings, BVOP : No
Format settings, QPel : No
Format settings, GMC : No warppoints
Format settings, Matrix : Default (H.263)
Codec ID : V_MS/VFW/FOURCC / DIVX
Codec ID/Info : Project Mayo
Codec ID/Hint : DivX 4
Duration : 5 min 45 s
Bit rate : 9 699 kb/s
Width : 1 920 pixels
Height : 1 080 pixels
Display aspect ratio : 16:9
Frame rate mode : Constant
Frame rate : 23.976 FPS
Color space : YUV
Chroma subsampling : 4:2:0
Bit depth : 8 bits
Scan type : Progressive
Compression mode : Lossy
Bits/(Pixel*Frame) : 0.195
Stream size : 399 MiB (97%)
Writing library : Lavc54.23.100
Language : English
Default : Yes
Forced : No

Audio
ID : 2
Format : MPEG Audio
Format version : Version 1
Format profile : Layer 3
Mode : Joint stereo
Mode extension : MS Stereo
Codec ID : A_MPEG/L3
Codec ID/Hint : MP3
Duration : 5 min 45 s
Bit rate mode : Constant
Bit rate : 256 kb/s
Channel(s) : 2 channels
Sampling rate : 44.1 kHz
Frame rate : 38.281 FPS (1152 spf)
Compression mode : Lossy
Stream size : 10.5 MiB (3%)
Writing library : LAME3.99.5
Language : English
Default : Yes
Forced : No
Скриншоты:

Дополнительные скриншоты:




Все одноименные релизы в Клубе
Детали торрента:
Название:The Weeknd - False Alarm (2016) WEB-DL [MPEG-4/1080p-LQ]
Дата добавления:20 Окт 2016 16:51:41
Размер:410 MB
Раздают:
Качают:0
Форум:Музыкальные клипы

All rights reserved © 2015-2018