TORRENTS43.COM

Скачать Восхождение на Олимп (2016) WEB-DLRip (серии 1-8 из 8)


Восхождение на Олимп (2016) WEB-DLRip (серии 1-8 из 8)
Производство: Россия / Централ Партнершип
Жанр: детектив

Режиссер: Сергей Щербин
Актеры: Владислав Резник, Юрий Батурин, Мария Капустинская, Заза Чантурия, Нино Нинидзе, Сергей Кудрявцев, Юрий Ицков, Сергей Барковский, Лука Тархан-Моурави, Наталья Ткаченко и др.

Описание:
Лето 1980. Москва готовится к Олимпиаде. Все силы КГБ и МВД брошены на поддержание правопорядка. Но, несмотря на все предпринятые меры, в столице происходит череда громких ограблений. Среди них – дерзкая кража шедевра старого мастера из Музея изобразительных искусств. Следователь Алексей Ставров любой ценой должен вернуть полотно до начала Олимпиады, ведь на карте – репутация страны. Однако дело оказывается намного сложнее, чем можно было предположить: его истоки – в событиях 1945 года, а замешаны в нем художники и ученые, лимитчицы и интуристы, воры в законе и люди в погонах…



Продолжительность: ~00:50:00 серия
Качество видео: WEB-DLRip

Видео: Xvid, 720x400, ~1622 Кбит/с
Аудио: AC3, 2 ch, 192 Кбит/с, CBR

Mediainfo:


General
Complete name : D:\Фильмы\Voshozdenie.na.Olimp.2016.WEB-DLRip.ExKinoRay\Voshozdenie.na.Olimp.(02.seriya).2016.WEB-DLRip.ExKinoRay.avi
Format : AVI
Format/Info : Audio Video Interleave
File size : 701 MiB
Duration : 53mn 42s
Overall bit rate : 1 823 Kbps
Writing application : VirtualDubMod 1.5.10.2 (build 2540/release)
Writing library : VirtualDubMod build 2540/release

Video
ID : 0
Format : MPEG-4 Visual
Format profile : Advanced Simple@L5
Format settings, BVOP : 1
Format settings, QPel : No
Format settings, GMC : No warppoints
Format settings, Matrix : Custom
Codec ID : XVID
Codec ID/Hint : XviD
Duration : 53mn 42s
Bit rate : 1 622 Kbps
Width : 720 pixels
Height : 400 pixels
Display aspect ratio : 16:9
Frame rate : 25.000 fps
Color space : YUV
Chroma subsampling : 4:2:0
Bit depth : 8 bits
Scan type : Progressive
Compression mode : Lossy
Bits/(Pixel*Frame) : 0.225
Stream size : 623 MiB (89%)
Writing library : XviD 1.2.1 (UTC 2008-12-04)

Audio
ID : 1
Format : AC-3
Format/Info : Audio Coding 3
Mode extension : CM (complete main)
Format settings, Endianness : Big
Codec ID : 2000
Duration : 53mn 42s
Bit rate mode : Constant
Bit rate : 192 Kbps
Channel(s) : 2 channels
Channel positions : Front: L R
Sampling rate : 48.0 KHz
Bit depth : 16 bits
Compression mode : Lossy
Stream size : 73.8 MiB (11%)
Alignment : Split accross interleaves
Interleave, duration : 40 ms (1.00 video frame)
Interleave, preload duratio : 500 ms
Скриншоты:


Все одноименные релизы в Клубе

Смотреть Online

http://moonwalk.cc/serial/0c07b3c542979880272be82c6ac92881/iframe
Детали торрента:
Название:Восхождение на Олимп (2016) WEB-DLRip (серии 1-8 из 8)
Дата добавления:21 Окт 2016 03:54:13
Размер:5,47 GB
Раздают:2
Качают:0
Форум:Отечественные сериалы

All rights reserved © 2015-2018