TORRENTS43.COM

Скачать ЭкзоМарс: В поисках жизни / Exomars: The Hunt for Life (2016) HDTVRip [H.264] [MP4|1280x720]


ЭкзоМарс: В поисках жизни / Exomars: The Hunt for Life (2016) HDTVRip
Производство: США / National Geographic Channel
Жанр: Документальный

Описание:
Зима 2015 года. Инженеры заканчивают работу над аппаратами первой миссии на Марс, которая будет запущена с космодрома Байконур в Казахстане. На борту космического аппарата орбитальный и спускаемый модули. Он преодолеет почти 500 000 000 км. пока не достигнет Красной планеты. Цель миссии - попытаться найти в атмосфере Марса следы живых существ, которые могут там обитать. Но одна ошибка может всё погубить. Как родилась идея этой миссии? Какие препятствия преодолели ученые? В этой документальной передаче мы узнаем подробности миссии 2016-2018 годов.

Продолжительность: 00:43:56
Качество видео: HDTVRip
Перевод: Одноголосый закадровый

Видео: AVC/H.264, 1280x720 (16:9), ~2185 Кбит/сек
Аудио: AAC, 2 ch, 144 Кбит/сек, VBR

Mediainfo:


Формат : MPEG-4
Профиль формата : Base Media
Идентификатор кодека : isom (isom/avc1)
Размер файла : 734 Мбайт
Продолжительность : 43 м. 56 с.
Режим общего битрейта : Переменный
Общий поток : 2336 Кбит/сек
Название фильма : Exomars The Hunt for Life 2016 HDTVRip (720p)
Тип содержимого : Movie
Дата кодирования : UTC 2016-10-26 08:49:24
Дата пометки : UTC 2016-10-26 08:50:08
Программа кодирования : MkvToMp4 [www.mkvtomp4.ru] version: 0.224 (x64)
HDVideo : Yes

Видео
Идентификатор : 1
Формат : AVC
Формат/Информация : Advanced Video Codec
Профиль формата : High@L4.1
Параметр CABAC формата : Да
Параметр ReFrames формата : 5 кадров
Идентификатор кодека : avc1
Идентификатор кодека/Информация : Advanced Video Coding
Продолжительность : 43 м. 56 с.
Битрейт : 2185 Кбит/сек
Максимальный битрейт : 8654 Кбит/сек
Ширина : 1280 пикселей
Высота : 720 пикселей
Соотношение сторон : 16:9
Режим частоты кадров : Постоянный
Частота кадров : 25,000 кадров/сек
Цветовое пространство : YUV
Субдискретизация насыщенности : 4:2:0
Битовая глубина : 8 бит
Тип развёртки : Прогрессивная
Бит/(Пиксели*Кадры) : 0.095
Размер потока : 687 Мбайт (94%)
Библиотека кодирования : x264 core 148 r2721 72d53ab
Настройки программы : cabac=1 / ref=5 / deblock=1:-3:-3 / analyse=0x3:0x133 / me=hex / subme=9 / psy=1 / psy_rd=1.00:0.00 / mixed_ref=1 / me_range=16 / chroma_me=1 / trellis=2 / 8x8dct=1 / cqm=0 / deadzone=21,11 / fast_pskip=0 / chroma_qp_offset=-2 / threads=6 / lookahead_threads=1 / sliced_threads=0 / nr=0 / decimate=1 / interlaced=0 / bluray_compat=0 / constrained_intra=0 / bframes=3 / b_pyramid=2 / b_adapt=1 / b_bias=0 / direct=3 / weightb=1 / open_gop=0 / weightp=2 / keyint=250 / keyint_min=25 / scenecut=40 / intra_refresh=0 / rc_lookahead=50 / rc=crf / mbtree=1 / crf=19.0 / qcomp=0.60 / qpmin=10 / qpmax=51 / qpstep=4 / ip_ratio=1.40 / aq=1:1.00
Язык : English
Дата кодирования : UTC 2016-10-26 08:49:24
Дата пометки : UTC 2016-10-26 08:49:38
Цветовой диапазон : Limited
Основные цвета : BT.709
Характеристики трансфера : BT.709
Коэффициенты матрицы : BT.709

Аудио
Идентификатор : 2
Формат : AAC
Формат/Информация : Advanced Audio Codec
Профиль формата : LC
Идентификатор кодека : 40
Продолжительность : 43 м. 56 с.
Вид битрейта : Переменный
Битрейт : 144 Кбит/сек
Максимальный битрейт : 196 Кбит/сек
Каналы : 2 канала
Расположение каналов : Front: L R
Частота : 48,0 КГц
Частота кадров : 46,875 кадров/сек (1024 spf)
Метод сжатия : С потерями
Размер потока : 45,1 Мбайт (6%)
Язык : Russian
Скриншоты:


Детали торрента:
Название:ЭкзоМарс: В поисках жизни / Exomars: The Hunt for Life (2016) HDTVRip [H.264] [MP4|1280x720]
Дата добавления:26 Окт 2016 12:14:49
Размер:734 MB
Раздают:1
Качают:0
Форум:Мобильное Видео

All rights reserved © 2015-2018