TORRENTS43.COM

Скачать Куда бы еще вторгнуться ? / Where to Invade Next ? (2016) WEBRip [H.264] [MP4|640x356]


Куда бы еще вторгнуться ? / Where to Invade Next ? (2016) WEBRip
Производство: США / Dog Eat Dog Films, IMG Films
Жанр: Документальный

Режиссер: Майкл Мур / Michael Moore
Актеры: Майкл Мур / Michael Moore

Описание:
Майкл Мур, выступая в качестве «завоевателя», путешествует по разным странам, чтобы придумать, как бы США решить свои проблемы. Вооружившись камерой и флагом, режиссер изучает норвежские тюрьмы и возглавляемые женщинами исландские банки, пособия работающих по найму в Италии и многое другое, чтобы привезти самые прогрессивные идеи на свою родину.


Возраст: 12+ (зрителям, достигшим 12 лет)
Рейтинг MPAA: PG-13 (детям до 13 лет просмотр нежелателен)
Дата мировой премьеры: 25.02.2016
Дата российской премьеры: 29.09.2016

Продолжительность: 02:00:10
Качество видео: WEBRip
Реклама: Присутствуют аудио и видео вставки рекламы
Перевод: Многоголосый закадровый

Видео: AVC/H.264, 640x356, ~570 Kbps
Аудио: AAC, 2 ch, 64 Kbps, CBR

Mediainfo:


Общее
Полное имя : E:\Where to Invade Next(RUS)_[Torrents43.com].mp4
Формат : MPEG-4
Профиль формата : Base Media
Идентификатор кодека : isom (isom/iso2/avc1/mp41)
Размер файла : 542 Мбайт
Продолжительность : 1 ч. 59 м.
Общий поток : 633 Кбит/сек

Видео
Идентификатор : 1
Формат : AVC
Формат/Информация : Advanced Video Codec
Профиль формата : High@L3
Параметр CABAC формата : Да
Параметр ReFrames формата : 3 кадра
Идентификатор кодека : avc1
Идентификатор кодека/Информация : Advanced Video Coding
Продолжительность : 1 ч. 59 м.
Битрейт : 570 Кбит/сек
Ширина : 640 пикселей
Высота : 356 пикселей
Соотношение сторон : 16:9
Режим частоты кадров : Постоянный
Частота кадров : 24,000 кадра/сек
Цветовое пространство : YUV
Субдискретизация насыщенности : 4:2:0
Битовая глубина : 8 бит
Тип развёртки : Прогрессивная
Бит/(Пиксели*Кадры) : 0.104
Размер потока : 483 Мбайт (89%)
Библиотека кодирования : x264 core 142 r2455 021c0dc
Настройки программы : cabac=1 / ref=1 / deblock=1:2:2 / analyse=0x3:0x113 / me=dia / subme=2 / psy=1 / psy_rd=1.00:0.00 / mixed_ref=0 / me_range=16 / chroma_me=1 / trellis=0 / 8x8dct=1 / cqm=0 / deadzone=21,11 / fast_pskip=1 / chroma_qp_offset=0 / threads=36 / lookahead_threads=2 / sliced_threads=0 / nr=0 / decimate=1 / interlaced=0 / bluray_compat=0 / constrained_intra=0 / bframes=3 / b_pyramid=1 / b_adapt=1 / b_bias=0 / direct=1 / weightb=1 / open_gop=0 / weightp=2 / keyint=60 / keyint_min=25 / scenecut=0 / intra_refresh=0 / rc_lookahead=40 / rc=abr / mbtree=1 / bitrate=570 / ratetol=1.0 / qcomp=0.60 / qpmin=10 / qpmax=51 / qpstep=4 / ip_ratio=1.41 / aq=1:1.00

Идентификатор : 2
Формат : AAC
Формат/Информация : Advanced Audio Codec
Профиль формата : LC
Идентификатор кодека : 40
Продолжительность : 1 ч. 59 м.
Продолжительность оригинала : 1 ч. 59 м.
Source_Duration_LastFrame : -11 мс.
Вид битрейта : Постоянный
Битрейт : 64,0 Кбит/сек
Каналы : 2 канала
Расположение каналов : Front: L R
Частота : 44,1 КГц
Частота кадров : 43,066 кадра/сек (1024 spf)
Метод сжатия : С потерями
Размер потока : 54,7 Мбайт (10%)
Размер потока оригинала : 54,7 Мбайт (10%)
Default : Да
Alternate group : 1

Дополнительные скриншоты:



Скриншоты:



Детали торрента:
Название:Куда бы еще вторгнуться ? / Where to Invade Next ? (2016) WEBRip [H.264] [MP4|640x356]
Дата добавления:26 Окт 2016 17:20:20
Размер:542 MB
Раздают:2
Качают:0
Форум:Мобильное Видео

All rights reserved © 2015-2018