TORRENTS43.COM

Скачать Старики-разбойники (1971) HDTV [H.264/1080i]


Старики-разбойники (1971) HDTV [H.264/1080i]
Производство: СССР, Мосфильм
Жанр: Комедия

Режиссер: Эльдар Рязанов
Актеры: Юрий Никулин, Евгений Евстигнеев, Ольга Аросева, Георгий Бурков, Андрей Миронов, Валентина Владимирова, Юрий Белов, Валентина Талызина, Роман Филиппов, Нина Агапова, Готлиб Ронинсон, Георгий Куликов, Лев Дуров

Описание:
Следователя прокуратуры Мячикова, достигшего пенсионного возраста, пытаются насильно «уйти» с работы, так как на его место есть кандидат, присланный «сверху». Вместе со своим старинным другом, инженером Воробьевым, Мячиков решает организовать преступление, раскрыв которое он сможет доказать свою необходимость и незаменимость…


Возраст: 12+ (зрителям, достигшим 12 лет)

Продолжительность: 01:25:53
Качество видео: HDTV [1080i]

Видео: AVC/H.264, 1920x1080, ~6879 Kbps
Аудио #1: MP2, 48 kHz, 2 ch, 224 kbps
Аудио #2: АС-3, 48 kHz, 6 ch, 384 kbps

Mediainfo:


Общее
Идентификатор : 16 (0x10)
Полное имя : Stariki-razboyniki_HD.ts
Формат : MPEG-TS
Размер файла : 4,73 Гбайт
Продолжительность : 1 ч. 25 м.
Режим общего битрейта : Переменный
Общий поток : 7883 Кбит/сек

Видео
Идентификатор : 1902 (0x76E)
Идентификатор меню : 92 (0x5C)
Формат : AVC
Формат/Информация : Advanced Video Codec
Профиль формата : High@L4.0
Параметр CABAC формата : Да
Параметр ReFrames формата : 3 кадра
Идентификатор кодека : 27
Продолжительность : 1 ч. 25 м.
Битрейт : 6879 Кбит/сек
Ширина : 1920 пикселей
Высота : 1080 пикселей
Соотношение сторон : 16:9
Частота кадров : 25,000 кадров/сек
Стандарт вещания : PAL
Цветовое пространство : YUV
Субдискретизация насыщенности : 4:2:0
Битовая глубина : 8 бит
Тип развёртки : Чересстрочная
Порядок развёртки : Верхнее поле первое
Бит/(Пиксели*Кадры) : 0.133
Размер потока : 4,13 Гбайт (87%)
Основные цвета : BT.709
Характеристики трансфера : BT.709
Коэффициенты матрицы : BT.709

Аудио #1
Идентификатор : 2902 (0xB56)
Идентификатор меню : 92 (0x5C)
Формат : MPEG Audio
Версия формата : Version 1
Профиль формата : Layer 2
Идентификатор кодека : 4
Продолжительность : 1 ч. 25 м.
Вид битрейта : Постоянный
Битрейт : 224 Кбит/сек
Каналы : 2 канала
Частота : 48,0 КГц
Метод сжатия : С потерями
Размер потока : 138 Мбайт (3%)
Язык : std
Язык, дополнительно : Clean effects

Аудио #2
Идентификатор : 3902 (0xF3E)
Идентификатор меню : 92 (0x5C)
Формат : AC-3
Формат/Информация : Audio Coding 3
Расширение режима : CM (complete main)
Параметр Endianness формата : Big
Идентификатор кодека : 6
Продолжительность : 1 ч. 25 м.
Вид битрейта : Постоянный
Битрейт : 384 Кбит/сек
Каналы : 6 каналов
Расположение каналов : Front: L C R, Side: L R, LFE
Частота : 48,0 КГц
Битовая глубина : 16 бит
Метод сжатия : С потерями
Задержка видео : 110 мс.
Размер потока : 236 Мбайт (5%)
Язык : std
Язык, дополнительно : Clean effects

Дополнительная информация:

Действие фильма происходит во Львове.
Картина, которую украли герои фильма, называется «Портрет молодого человека с кружевным воротником» 1964 г. и находится в Государственном Эрмитаже.
Первоначально на роль Проскудина был приглашен Анатолий Кузнецов. Из воспоминаний Анатолия Кузнецова: «- Я до этого уже сыграл несколько следователей, а тут опять такое предложение, — рассказывает Кузнецов. — Говорю Рязанову: «Я хочу одного из стариков». А он отвечает: «Да нет, я уже выбрал, ты будешь на своем месте…» Но я отказался. А когда фильм вышел на экраны, пожалел об отказе».

В опубликованном сценарии Мячиков находит грабителя, задерживает его и приводит к Федяеву, но тот отпускает преступника за отсутствием улик. В фильм этот эпизод не вошел.

Рецензия, отзыв:

«Похищение века»

Как и в предыдущих сценариях Э. Рязанова и Э. Брагинского, необычная главная ситуация тянет за собой цепь забавных сюжетных сплетений и переплетений, совпадений и парадоксов. И сквозь пеструю вязь комедийного сюжета просматривается иное: людские судьбы и характеры, наша живая каждодневность. И прежде всего уважение с пожилым.

В фильме главное событие — кража. И не просто кража, «преступление века». Похищен «Портрет молодого художника» кисти Рембранда! И все это чтобы доказать свою незаменимость и избежать ухода на пенсию. Друзья Мячиков и Воробьев придумали гениальный план. Так в наглую похитить картину! Такого даже не было когда Владислав Дворжецкий похищал картину Франса Хальса «Святой Лука»!

В видениях Мячикова много остроумных и неожиданных трюков, эффектов, вроде чугунного топота гигантских конных статуй: кондотьеры сошли со своих музейных пьедесталов и преследуют дерзкого грабителя; Мячиков-юрист заключает под стражу Мячикова-грабителя, причем его опять никто никак не хочет признать виновным. Прекрасно поставлены трюковые сцены с автомобилем, разным «форсажистам» такое и не снилось,

Юрий Никулин и Евгений Евстегнеев демонстрируют высокий класс актерской игры, прекрасный артистический дуэт. Чего стоит их три марш-броска в музей! С ними соревнуются не менее замечательные актеры: Андрей Миронов (опять появился здесь с Никулиным) в роли и. о. следователя прокуратуры Проскудина, эдакий чистенький, самоуверенный молодец, Ольга Аросева, в роли отважного кассира и подруги «разбойников» Анны Павловны, сыграла с присущей ей тонкостью и юмором, и конечно как не вспомнить Георгия Буркова и его коронное выражение: «Бандитская пуля».

Тема фильма гораздо глубже, человечнее и серьезнее, чем просто комедия. И от этого грустно. Пробил роковой час, настал рубеж «60»! Для многих людей есть личное благо и безоблачное счастье, в старости не работать и жить в свое удовольствие. Но не для натур деятельных, активных, душевно молодых. Столько похвал о себе никогда не выслушаешь как на проводах на пенсию. Хотя эта церемония скорее походит на похороны и это замечательно показано в фильме. Вот и Воробьев принимает пышные речи за чистую монету, быстро возвращает подарки и объявляет, что остается! В наше суровое время пенсионеры вынуждены работать, так как пенсии не хватает, на такую «заслуженную» после работы жизнь. Вот Проскудин доработает до пенсии и тоже будет выдавлен таким же молодым как и он сам был.

Все мы, когда-нибудь состаримся. Рано или поздно. Это сейчас вы молоды, но настанет рубеж и вы никому не нужны. Особенно это чувствуется в наше время. Ну а те, кому сейчас 20-ть, будет ли вообще у вас пенсия? Может ее отменят к тому времени. И никаких сбережений не хватит, чтобы обеспечить себя. Сегодня у Юрия Владимировича Никулина день рождения, давайте же не забывать замечательных фильмов с его участием.
Скриншоты:


Все одноименные релизы в Клубе

Смотреть Online

http://37.220.36.15/video/b15208cd9ca7aa79/iframe
Детали торрента:
Название:Старики-разбойники (1971) HDTV [H.264/1080i]
Дата добавления:26 Окт 2016 17:36:03
Размер:4,73 GB
Раздают:12
Качают:0
Форум:Отечественная Классика (HD)

All rights reserved © 2015-2018