TORRENTS43.COM

Скачать Образцовый самец 2 / Zoolander 2 (2016) BDRip [H.264/1080p-LQ]


Образцовый самец 2 / Zoolander 2 (2016) BDRip [H.264/1080p] «Long time no Z»
Производство: США / Red Hour Films, Scott Rudin Productions
Жанр: Комедия

Режиссер: Бен Стиллер
Продюсер: Стюарт Корнфелд, Джефф Манн, Скотт Рудин
Актеры: Бен Стиллер, Оуэн Уилсон, Пенелопа Крус, Кристен Уиг, Уилл Феррелл, Бенедикт Камбербэтч, Джастин Бибер, Джон Дэйли, Кэти Курик, Эми Стиллер

Описание:
Триумфальное возвращение на подиумы когда-то топовых, а ныне слегка потрепанных мужчин-моделей Дерека Зуландера и Ханселя в комедии о мире, где для обретения всеобщей популярности достаточно одного селфи.


Возраст: 16+ (зрителям, достигшим 16 лет)
Рейтинг MPAA: PG-13 (детям до 13 лет просмотр нежелателен)
Дата мировой премьеры: 4 февраля 2016
Дата российской премьеры: 18 февраля 2016, «Централ Партнершип»
Дата выхода DVD релиза: 16 мая 2016, «Новый Диск»

Релиз от: R.G. GoldenShara

Продолжительность: 01:41:47
Качество видео: BDRip
Перевод: Дублированный (Лицензия BD CEE)
Язык субтитров: Английские (Full, SDH)
Вид субтитров: Вшитые отключаемые

Видео: AVC/H.264, 1920х802 (2.40:1), ~5689 Kbps
Аудио: AC3, 6 ch, 448 Kbps, CBR

MediaInfo:


Общее
Уникальный идентификатор : 215318590561560444070056844512796830637 (0xA1FCDA242E4E219C987C981A7B876BAD)
Формат : Matroska
Версия формата : Version 4 / Version 2
Размер файла : 4,36 Гбайт
Продолжительность : 1 ч. 41 м.
Общий поток : 6131 Кбит/сек
Название фильма : Образцовый самец 2 2016 Dub Rus BDRip 1080p By Magnetto 83
Дата кодирования : UTC 2016-07-01 10:30:38
Программа кодирования : mkvmerge v7.8.0 ('River Man') 32bit built on Mar 27 2015 16:18:02
Библиотека кодирования : libebml v1.3.1 + libmatroska v1.4.2

Видео
Идентификатор : 1
Формат : AVC
Формат/Информация : Advanced Video Codec
Профиль формата : High@L4.1
Параметр CABAC формата : Да
Параметр ReFrames формата : 5 кадров
Идентификатор кодека : V_MPEG4/ISO/AVC
Продолжительность : 1 ч. 41 м.
Битрейт : 5689 Кбит/сек
Ширина : 1920 пикселей
Высота : 802 пикселя
Соотношение сторон : 2,40:1
Режим частоты кадров : Постоянный
Частота кадров : 23,976 (24000/1001) кадра/сек
Цветовое пространство : YUV
Субдискретизация насыщенности : 4:2:0
Битовая глубина : 8 бит
Тип развёртки : Прогрессивная
Бит/(Пиксели*Кадры) : 0.154
Размер потока : 4,04 Гбайт (93%)
Заголовок : Образцовый самец 2 2016 BDRip 1080p
Библиотека кодирования : x264 core 146 r2538 121396c
Настройки программы : cabac=1 / ref=5 / deblock=1:-3:-3 / analyse=0x3:0x113 / me=umh / subme=11 / psy=1 / psy_rd=1.00:0.00 / mixed_ref=1 / me_range=32 / chroma_me=1 / trellis=2 / 8x8dct=1 / cqm=0 / deadzone=21,11 / fast_pskip=0 / chroma_qp_offset=-2 / threads=3 / lookahead_threads=1 / sliced_threads=0 / nr=0 / decimate=1 / interlaced=0 / bluray_compat=0 / constrained_intra=0 / bframes=8 / b_pyramid=2 / b_adapt=2 / b_bias=0 / direct=3 / weightb=1 / open_gop=0 / weightp=2 / keyint=250 / keyint_min=23 / scenecut=40 / intra_refresh=0 / rc=2pass / mbtree=0 / bitrate=5689 / ratetol=1.0 / qcomp=0.60 / qpmin=0 / qpmax=69 / qpstep=4 / cplxblur=20.0 / qblur=0.5 / ip_ratio=1.40 / pb_ratio=1.30 / aq=2:1.00
Default : Да
Forced : Нет

Аудио
Идентификатор : 2
Формат : AC-3
Формат/Информация : Audio Coding 3
Расширение режима : CM (complete main)
Параметр Endianness формата : Big
Идентификатор кодека : A_AC3
Продолжительность : 1 ч. 41 м.
Вид битрейта : Постоянный
Битрейт : 448 Кбит/сек
Каналы : 6 каналов
Расположение каналов : Front: L C R, Side: L R, LFE
Частота : 48,0 КГц
Частота кадров : 31,250 кадров/сек (1536 spf)
Битовая глубина : 16 бит
Метод сжатия : С потерями
Размер потока : 326 Мбайт (7%)
Заголовок : DD 5.1 @ 448 Kbps Дубляж - Лицензия Blu-Ray CEE
Язык : Russian
Default : Да
Forced : Нет

Текст #1
Идентификатор : 3
Формат : UTF-8
Идентификатор кодека : S_TEXT/UTF8
Идентификатор кодека/Информация : UTF-8 Plain Text
Продолжительность : 1 ч. 33 м.
Битрейт : 64 бит/сек
Count of elements : 1383
Размер потока : 44,2 Кбайт (0%)
Заголовок : full
Язык : English
Default : Нет
Forced : Нет

Текст #2
Идентификатор : 4
Формат : UTF-8
Идентификатор кодека : S_TEXT/UTF8
Идентификатор кодека/Информация : UTF-8 Plain Text
Продолжительность : 1 ч. 34 м.
Битрейт : 68 бит/сек
Count of elements : 1686
Размер потока : 47,9 Кбайт (0%)
Заголовок : SDH
Язык : English
Default : Нет
Forced : Нет

Меню
00:00:00.000 : en:Chapter 1
00:07:40.877 : en:Chapter 2
00:12:25.370 : en:Chapter 3
00:15:26.217 : en:Chapter 4
00:22:49.868 : en:Chapter 5
00:28:41.136 : en:Chapter 6
00:31:07.074 : en:Chapter 7
00:36:42.617 : en:Chapter 8
00:42:54.614 : en:Chapter 9
00:48:54.974 : en:Chapter 10
00:56:57.039 : en:Chapter 11
01:07:00.225 : en:Chapter 12
01:14:33.010 : en:Chapter 13
01:18:17.067 : en:Chapter 14
01:23:42.226 : en:Chapter 15
01:33:15.548 : en:Chapter 16

x264


x264 [info]: frame I:1289 Avg QP:14.76 size:179201
x264 [info]: frame P:36749 Avg QP:17.86 size: 52593
x264 [info]: frame B:108397 Avg QP:20.18 size: 20047

Скриншоты:


Все одноименные релизы в Клубе

Смотреть Online

http://moonwalk.cc/video/3a0c60ffb96ba8f6/iframe
Детали торрента:
Название:Образцовый самец 2 / Zoolander 2 (2016) BDRip [H.264/1080p-LQ]
Дата добавления:03 Ноя 2016 10:08:01
Размер:4,36 GB
Раздают:4
Качают:0
Форум:Зарубежные Фильмы (HD*Rip/LQ, DVDRip, SATRip, VHSRip)

All rights reserved © 2015-2018