TORRENTS43.COM

Скачать Аллея славы / Walk of Fame (2016) WEB-DL [H.264/1080p-LQ]


Аллея славы / Walk of Fame (2016) WEB-DL [H.264/1080p-LQ]
Производство: США
Жанр: Комедия

Режиссер: Джесси Томас
Актеры: Скотт Иствуд, Малкольм МакДауэлл, Крис Кэттэн, Джейми Кеннеди, Кори Хардрикт, Джек Гусман, Лаура Эшли Сэмюэлс, Соня Роквэлл, Эллисон Вайсман, Эдди Джордж.

Описание:
Команда разочаровавшихся в жизни и работе людей собралась на сцене импровизированного театра. Их тренер и наставник — эксцентричный и обаятельный актёр, который знает толк в своем деле. Ему предстоит провести своих разношерстных подчинённых по длинному пути к успеху, исполнять роль вдохновителя и образца для подражания. Эта дорога насыщена невероятными комичными совпадениями и отличным юмором.


Дата мировой премьеры: 10 июня 2016

Продолжительность: 01:22:53
Качество видео: WEB-DL 1080p-LQ
Перевод: Многоголосый закадровый, профессиональный (Официальный звук)
Субтитры: Отсутствуют

Видео: AVC/H.264, 1920x1080, 25.000 fps, ~4000 Kbps
Аудио: AC3, 2 ch, 384 Kbps, CBR

Трейлер (без перевода):

YouTube

Mediainfo:


Общее
Уникальный идентификатор : 208429003508675940168915065685888077038 (0x9CCDF7461D5BB7FBB98F55C491A20CEE)
Полное имя : D:\Фильмы\Мои раздачи\Аллея славы\Аллея славы.2016.P.WEB-DL.1080p.mkv
Формат : Matroska
Версия формата : Version 4 / Version 2
Размер файла : 2,54 Гбайт
Продолжительность : 1 ч. 22 м.
Общий поток : 4387 Кбит/сек
Программа кодирования : Lavf57.25.100
Библиотека кодирования : Lavf57.25.100

Видео
Идентификатор : 1
Формат : AVC
Формат/Информация : Advanced Video Codec
Профиль формата : High@L4.0
Параметр CABAC формата : Да
Параметр ReFrames формата : 3 кадра
Идентификатор кодека : V_MPEG4/ISO/AVC
Продолжительность : 1 ч. 22 м.
Битрейт : 4000 Кбит/сек
Ширина : 1920 пикселей
Высота : 1080 пикселей
Соотношение сторон : 16:9
Режим частоты кадров : Постоянный
Частота кадров : 25,000 кадров/сек
Цветовое пространство : YUV
Субдискретизация насыщенности : 4:2:0
Битовая глубина : 8 бит
Тип развёртки : Прогрессивная
Бит/(Пиксели*Кадры) : 0.077
Размер потока : 2,27 Гбайт (89%)
Библиотека кодирования : x264 core 142 r2389 956c8d8
Настройки программы : cabac=1 / ref=3 / deblock=1:0:0 / analyse=0x3:0x133 / me=umh / subme=7 / psy=1 / psy_rd=1.00:0.00 / mixed_ref=1 / me_range=32 / chroma_me=1 / trellis=2 / 8x8dct=1 / cqm=0 / deadzone=21,11 / fast_pskip=1 / chroma_qp_offset=-2 / threads=12 / lookahead_threads=2 / sliced_threads=0 / nr=0 / decimate=1 / interlaced=0 / bluray_compat=0 / constrained_intra=0 / bframes=0 / weightp=0 / keyint=75 / keyint_min=26 / scenecut=40 / intra_refresh=0 / rc_lookahead=50 / rc=2pass / mbtree=0 / bitrate=4000 / ratetol=1.0 / qcomp=0.20 / qpmin=10 / qpmax=51 / qpstep=4 / cplxblur=20.0 / qblur=0.5 / vbv_maxrate=5000 / vbv_bufsize=5000 / nal_hrd=none / filler=0 / ip_ratio=1.40 / aq=1:1.00
Default : Да
Forced : Нет
DURATION : 01:22:53.960000000
Основные цвета : BT.709
Характеристики трансфера : BT.709
Коэффициенты матрицы : BT.709

Аудио
Идентификатор : 2
Формат : AC-3
Формат/Информация : Audio Coding 3
Расширение режима : CM (complete main)
Параметр Endianness формата : Big
Идентификатор кодека : A_AC3
Продолжительность : 1 ч. 22 м.
Вид битрейта : Постоянный
Битрейт : 384 Кбит/сек
Каналы : 2 канала
Расположение каналов : Front: L R
Частота : 44,1 КГц
Битовая глубина : 16 бит
Метод сжатия : С потерями
Размер потока : 228 Мбайт (9%)
Язык : unknown
Default : Да
Forced : Нет
DURATION : 01:22:53.853000000
Скриншоты:



Все одноименные релизы в Клубе

Смотреть Online

http://moonwalk.cc/video/ed77d7d27d772b1f/iframe
Детали торрента:
Название:Аллея славы / Walk of Fame (2016) WEB-DL [H.264/1080p-LQ]
Дата добавления:04 Ноя 2016 17:05:58
Размер:2,54 GB
Раздают:1
Качают:0
Форум:Зарубежные Фильмы (HD*Rip/LQ, DVDRip, SATRip, VHSRip)

All rights reserved © 2015-2018