TORRENTS43.COM

Скачать День шокирующих гипотез. Я тебя не хочу! (2016.11.06) SATRip


День шокирующих гипотез. Я тебя не хочу! (2016.11.06) SATRip
Телекомпания: РЕН
Жанр: Документальный
Ведущий: Игорь Прокопенко

Описание:
Расследование сенсационных теорий и свежий взгляд на исторические факты. Ответы на загадки нашего подсознания и новости из всех областей человеческих знаний.

Релиз от: Хотт@быч
Продолжительность: 00:47:13
Качество видео: SATRip
Субтитры: Отсутствуют

Видео: MPEG4, XviD, 720x400 (16:9), 25.000 fps, 1 798 Kbps (0.250 bit/pixel)
Аудио: MP3, 48.0 KHz, 2 ch, 128 Kbps, CBR

Mediainfo:

Код: выделить все
 Общее
Полное имя                               : D:\[1]\День шокирующих гипотез\День шокирующих гипотез. Я тебя не хочу! (2016.11.06).avi
Формат                                   : AVI
Формат/Информация                        : Audio Video Interleave
Размер файла                             : 654 Мбайт
Продолжительность                        : 47 м.
Общий поток                              : 1936 Кбит/сек
Программа кодирования                    : VirtualDubMod 1.5.10.3 | www.virtualdub-fr.org || (build 2550/release)
Библиотека кодирования                   : VirtualDubMod build 2550/release

Видео
Идентификатор                            : 0
Формат                                   : MPEG-4 Visual
Профиль формата                          : Advanced Simple@L5
Параметр BVOP формата                    : 2
Параметр QPel формата                    : Нет
Параметр GMC формата                     : Без точки перехода
Параметр матрицы формата                 : Default (H.263)
Идентификатор кодека                     : XVID
Идентификатор кодека/Подсказка           : XviD
Продолжительность                        : 47 м.
Битрейт                                  : 1798 Кбит/сек
Ширина                                   : 720 пикселей
Высота                                   : 400 пикселей
Соотношение сторон                       : 16:9
Частота кадров                           : 25,000 кадров/сек
Цветовое пространство                    : YUV
Субдискретизация насыщенности            : 4:2:0
Битовая глубина                          : 8 бит
Тип развёртки                            : Прогрессивная
Метод сжатия                             : С потерями
Бит/(Пиксели*Кадры)                      : 0.250
Размер потока                            : 607 Мбайт (93%)
Библиотека кодирования                   : XviD 1.2.1 (UTC 2008-12-04)

Аудио
Идентификатор                            : 1
Формат                                   : MPEG Audio
Версия формата                           : Version 1
Профиль формата                          : Layer 3
Режим                                    : Joint stereo
Расширение режима                        : MS Stereo
Идентификатор кодека                     : 55
Идентификатор кодека/Подсказка           : MP3
Продолжительность                        : 47 м.
Вид битрейта                             : Постоянный
Битрейт                                  : 128 Кбит/сек
Каналы                                   : 2 канала
Частота                                  : 48,0 КГц
Метод сжатия                             : С потерями
Размер потока                            : 43,2 Мбайт (7%)
Выравнивание                             : Соединение по промежуткам
Продолжительность промежутка             : 40  мс. (1,00 видеокадр)
Время предзагрузки промежутка            : 504  мс.
Библиотека кодирования                   : LAME3.99r
Настройки программы                      : -m j -V 4 -q 2 -lowpass 17 -b 128
 

В выпуске:

Почему людям больше не нужен секс? Чем мужчины заменили любовниц? Как запрет на размножение продлит жизнь человеку?
Скриншоты:



Все одноименные релизы в Клубе
Детали торрента:
Название:День шокирующих гипотез. Я тебя не хочу! (2016.11.06) SATRip
Дата добавления:06 Ноя 2016 23:56:16
Размер:654 MB
Раздают:1
Качают:0
Форум:Непознанное и сверхъестественное

All rights reserved © 2015-2018