TORRENTS43.COM

Скачать John Scofield - Past Present (2015) Universal[FLAC|Lossless|tracks + .cue] <Post-Bop>


John Scofield - Past Present (2015) Universal
Год: 2015
Жанр: Post-Bop
Издание: Impulse! / Universal - 0602547485106
Продолжительность: 00:52:28

Кодек: FLAC (tracks+.cue)
Битрейт: Lossless
Источник (релизер): dtromp
Страна-производитель диска: EU
Наличие сканов в содержимом раздачи: да

Треклист:

01.Slinky [07:10]
02.Chap Dance [05:21]
03.Hangover [06:35]
04.Museum [06:31]
05.Season Creep [05:04]
06.Get Proud [05:22]
07.Enjoy The Future! [05:24]
08.Mr. Puffy [05:02]
09.Past Present [06:03]

Отчёт EAC:


Exact Audio Copy V1.3 from 2. September 2016

EAC extraction logfile from 8. November 2016, 9:03

John Scofield / Past Present

Used drive : ATAPI iHBS112 2 Adapter: 1 ID: 1

Read mode : Secure
Utilize accurate stream : Yes
Defeat audio cache : Yes
Make use of C2 pointers : No

Read offset correction : 6
Overread into Lead-In and Lead-Out : No
Fill up missing offset samples with silence : Yes
Delete leading and trailing silent blocks : No
Null samples used in CRC calculations : Yes
Used interface : Native Win32 interface for Win NT & 2000
Gap handling : Appended to previous track

Used output format : User Defined Encoder
Selected bitrate : 128 kBit/s
Quality : High
Add ID3 tag : No
Command line compressor : C:\Program Files (x86)\Exact Audio Copy\Flac\flac.exe
Additional command line options : -8 -V -T "ARTIST=%artist%" -T "TITLE=%title%" -T "ALBUM=%albumtitle%" -T "DATE=%year%" -T "TRACKNUMBER=%tracknr%" -T "GENRE=%genre%" -T "PERFORMER=%albuminterpret%" -T "COMPOSER=%composer%" -T "ALBUMARTIST=%albumartist%" -T "DISCNUMBER=%cdnumber%" -T "TOTALDISCS=%totalcds%" -T "TOTALTRACKS=%numtracks%" -T "COMMENT=EAC Secure Mode, Test & Copy, AccurateRip, FLAC -8" %source% -o %dest%

TOC of the extracted CD

Track | Start | Length | Start sector | End sector
---------------------------------------------------------
1 | 0:00.00 | 7:09.65 | 0 | 32239
2 | 7:09.65 | 5:20.53 | 32240 | 56292
3 | 12:30.43 | 6:34.14 | 56293 | 85856
4 | 19:04.57 | 6:30.09 | 85857 | 115115
5 | 25:34.66 | 5:03.68 | 115116 | 137908
6 | 30:38.59 | 5:21.09 | 137909 | 161992
7 | 35:59.68 | 5:23.07 | 161993 | 186224
8 | 41:23.00 | 5:01.41 | 186225 | 208840
9 | 46:24.41 | 6:02.51 | 208841 | 236041

Track 1

Filename D:\DL\John Scofield - Past Present (2015) [FLAC]\01 - Slinky.wav

Pre-gap length 0:00:02.00

Peak level 99.8 %
Extraction speed 2.2 X
Track quality 100.0 %
Test CRC 2C6B0774
Copy CRC 2C6B0774
Accurately ripped (confidence 16) [A107735D] (AR v2)
Copy OK

Track 2

Filename D:\DL\John Scofield - Past Present (2015) [FLAC]\02 - Chap Dance.wav

Pre-gap length 0:00:00.64

Peak level 99.8 %
Extraction speed 1.9 X
Track quality 99.9 %
Test CRC 94B9BFC2
Copy CRC 94B9BFC2
Accurately ripped (confidence 17) [3A200923] (AR v2)
Copy OK

Track 3

Filename D:\DL\John Scofield - Past Present (2015) [FLAC]\03 - Hangover.wav

Pre-gap length 0:00:02.01

Peak level 99.8 %
Extraction speed 2.8 X
Track quality 100.0 %
Test CRC CE439F50
Copy CRC CE439F50
Accurately ripped (confidence 17) [AB082D58] (AR v2)
Copy OK

Track 4

Filename D:\DL\John Scofield - Past Present (2015) [FLAC]\04 - Museum.wav

Pre-gap length 0:00:00.47

Peak level 99.8 %
Extraction speed 2.5 X
Track quality 99.9 %
Test CRC E2135D97
Copy CRC E2135D97
Accurately ripped (confidence 17) [8AD10C15] (AR v2)
Copy OK

Track 5

Filename D:\DL\John Scofield - Past Present (2015) [FLAC]\05 - Season Creep.wav

Pre-gap length 0:00:01.34

Peak level 99.8 %
Extraction speed 3.2 X
Track quality 100.0 %
Test CRC 911293B4
Copy CRC 911293B4
Accurately ripped (confidence 17) [F9C4056A] (AR v2)
Copy OK

Track 6

Filename D:\DL\John Scofield - Past Present (2015) [FLAC]\06 - Get Proud.wav

Pre-gap length 0:00:01.18

Peak level 99.8 %
Extraction speed 3.4 X
Track quality 100.0 %
Test CRC 73981F7B
Copy CRC 73981F7B
Accurately ripped (confidence 17) [EF4DFB5C] (AR v2)
Copy OK

Track 7

Filename D:\DL\John Scofield - Past Present (2015) [FLAC]\07 - Enjoy The Future!.wav

Pre-gap length 0:00:02.27

Peak level 97.1 %
Extraction speed 3.6 X
Track quality 100.0 %
Test CRC 529C2A2B
Copy CRC 529C2A2B
Accurately ripped (confidence 17) [EA73D3B6] (AR v2)
Copy OK

Track 8

Filename D:\DL\John Scofield - Past Present (2015) [FLAC]\08 - Mr. Puffy.wav

Pre-gap length 0:00:01.17

Peak level 99.8 %
Extraction speed 3.7 X
Track quality 100.0 %
Test CRC FD596F2F
Copy CRC FD596F2F
Accurately ripped (confidence 17) [B046687C] (AR v2)
Copy OK

Track 9

Filename D:\DL\John Scofield - Past Present (2015) [FLAC]\09 - Past Present.wav

Pre-gap length 0:00:01.10

Peak level 99.8 %
Extraction speed 4.0 X
Track quality 100.0 %
Test CRC 0B633F84
Copy CRC 0B633F84
Accurately ripped (confidence 17) [9E42CCA1] (AR v2)
Copy OK

All tracks accurately ripped

No errors occurred

End of status report

---- CUETools DB Plugin V2.1.6

[CTDB TOCID: rwQLXEy75Z40jI9NISR2ahePhPw-] database access error: Le nom distant n'a pas pu être résolu: 'db.cuetools.net'

==== Log checksum 4367E09206A5BDAF5C1A95F134B7BF11F09A21A18A50321771E56073FBCADFF9 ====

Cue Sheet (.cue):


REM GENRE Jazz
REM DATE 2015
REM DISCID 740C4B09
REM COMMENT "ExactAudioCopy v1.3"
PERFORMER "John Scofield"
TITLE "Past Present"
FILE "01 - Slinky.wav" WAVE
TRACK 01 AUDIO
TITLE "Slinky"
PERFORMER "John Scofield"
INDEX 01 00:00:00
TRACK 02 AUDIO
TITLE "Chap Dance"
PERFORMER "John Scofield"
INDEX 00 07:09:01
FILE "02 - Chap Dance.wav" WAVE
INDEX 01 00:00:00
TRACK 03 AUDIO
TITLE "Hangover"
PERFORMER "John Scofield"
INDEX 00 05:18:52
FILE "03 - Hangover.wav" WAVE
INDEX 01 00:00:00
TRACK 04 AUDIO
TITLE "Museum"
PERFORMER "John Scofield"
INDEX 00 06:33:42
FILE "04 - Museum.wav" WAVE
INDEX 01 00:00:00
TRACK 05 AUDIO
TITLE "Season Creep"
PERFORMER "John Scofield"
INDEX 00 06:28:50
FILE "05 - Season Creep.wav" WAVE
INDEX 01 00:00:00
TRACK 06 AUDIO
TITLE "Get Proud"
PERFORMER "John Scofield"
INDEX 00 05:02:50
FILE "06 - Get Proud.wav" WAVE
INDEX 01 00:00:00
TRACK 07 AUDIO
TITLE "Enjoy The Future!"
PERFORMER "John Scofield"
INDEX 00 05:18:57
FILE "07 - Enjoy The Future!.wav" WAVE
INDEX 01 00:00:00
TRACK 08 AUDIO
TITLE "Mr. Puffy"
PERFORMER "John Scofield"
INDEX 00 05:21:65
FILE "08 - Mr. Puffy.wav" WAVE
INDEX 01 00:00:00
TRACK 09 AUDIO
TITLE "Past Present"
PERFORMER "John Scofield"
INDEX 00 05:00:31
FILE "09 - Past Present.wav" WAVE
INDEX 01 00:00:00

Отчёт auCDtect Task manager:


-----------------------

DON'T MODIFY THIS FILE

-----------------------

PERFORMER: auCDtect Task Manager, ver. 1.6.0 RC1 build 1.6.0.1
Copyright (c) 2008-2010 y-soft. All rights reserved
http://y-soft.org

ANALYZER: auCDtect: CD records authenticity detector, version 0.8.2
Copyright (c) 2004 Oleg Berngardt. All rights reserved.
Copyright (c) 2004 Alexander Djourik. All rights reserved.

FILE: 09 - Past Present.flac
Size: 44638983 Hash: 69A674019752BE2D53D29603EF19FF51 Accuracy: -m0
Conclusion: CDDA 100%
Signature: 0D7EEE2FA7BE89829ACB4A72E2236C1C62840078
FILE: 08 - Mr. Puffy.flac
Size: 32758139 Hash: 5F2BE953031735EA00F901A88CD0711D Accuracy: -m0
Conclusion: CDDA 99%
Signature: 5978E03B2843691895031CD3F2D26919F125AE44
FILE: 07 - Enjoy The Future!.flac
Size: 36368729 Hash: 24C0C053ECAEFFB72779450FD74C9010 Accuracy: -m0
Conclusion: CDDA 100%
Signature: 47F3DBE105A87AD367012E7B9BA5F10C18861AFB
FILE: 06 - Get Proud.flac
Size: 35809805 Hash: 74906BA18579E3783C3661B1CDAD38B4 Accuracy: -m0
Conclusion: CDDA 100%
Signature: 2024943CA69299851EADBD586A4CADE653AB01EF
FILE: 05 - Season Creep.flac
Size: 33002907 Hash: B6AA7DFE3FFE3B5B1BAAD9CC9117C199 Accuracy: -m0
Conclusion: CDDA 99%
Signature: 2B109C9804430BCF5642D1E9F14A1900049DED6E
FILE: 04 - Museum.flac
Size: 46507024 Hash: 0B767D2DD4850A99F9B4C5DBE957DDEF Accuracy: -m0
Conclusion: CDDA 100%
Signature: 016AB36C2E221EB80463CD965CB327AF6AEF23D2
FILE: 03 - Hangover.flac
Size: 40880109 Hash: 3F7EFA6D86233AD3D921341BE96AEC66 Accuracy: -m0
Conclusion: CDDA 99%
Signature: 0824760176DEA132C947E8F81AEEFAB04FCC18D4
FILE: 02 - Chap Dance.flac
Size: 40243600 Hash: 1F62861EFA7A7FE5136DF22058DD4330 Accuracy: -m0
Conclusion: CDDA 100%
Signature: 1C32F3389FF39C0E72BC90619B717AC7FF45B629

Состав

John Scofield - guitar
Joe Lovano - tenor sax
Larry Grenadier - bass
Bill Stewart - drums




Поглощение/вытеснение
Только с согласия релизера

gvm55

Детали торрента:
Название:John Scofield - Past Present (2015) Universal[FLAC|Lossless|tracks + .cue] <Post-Bop>
Дата добавления:10 Ноя 2016 15:09:58
Размер:344 MB
Раздают:2
Качают:0
Форум:Jazz (Lossless)

All rights reserved © 2015-2018