TORRENTS43.COM

Скачать Джон Леннон / Lennon Naked (2010) HDTV [H.264/1080i]


Джон Леннон / Lennon Naked (2010) HDTV [H.264/1080i]
Производство: Великобритания, Blast! Films, British Broadcasting Corporation (BBC)
Жанр: Драма, Биография, Музыка

Режиссер: Эдмунд Култхард
Актеры: Кристофер Экклстон, Наоко Мори, Кристофер Фэйрбэнк, Аллан Кордунер, Эндрю Скотт, Майкл Колган, Крэйг Читхэм, Джек Морган, Клоди Блейкли, Рори Киннер

Описание:
Фильм-биография о жизни и творчестве Джона Леннона в период с 1967 до 1971 года фоне распадающихся The Beatles. Эта психологическая драма начинается с путешествия в детство Леннона, в котором ему отчаянно недоставало любви и поддержки родителей. Именно нехватка любви стала причиной боли и неудовлетворенности, навсегда поселившихся в сердце великого музыканта. Возможно, поэтому к написанной им “All you need is love” невозможно остаться равнодушным. Кристофер Экклстон («28 дне спустя», «Доктор Кто»), обожающий своего персонажа, блестяще исполнил главную роль – настоящий Леннон, гений со всеми своими противоречиями и демонами.


Возраст: 16+ (зрителям, достигшим 16 лет)

Продолжительность: 01:22:04
Качество видео: HDTV [1080i]
Перевод: Многоголосый закадровый, профессиональный (NovaMedia)

Видео: AVC/H.264, 1920x1080, ~6738 Kbps
Аудио #1 Rus: MP2, 2 ch, 48,0 kHz, 192 kbps - (MVO)
Аудио #2 En: MP2, 2 ch, 48,0 kHz, 192 kbps - оригинал
Аудио #3 Rus: АС3, 6 ch, 48,0 kHz, 384 kbps - (MVO)

Mediainfo:


Общее
Идентификатор : 16 (0x10)
Полное имя : Lennon Naked_HD.ts
Формат : MPEG-TS
Размер файла : 4,53 Гбайт
Продолжительность : 1 ч. 22 м.
Режим общего битрейта : Переменный
Общий поток : 7905 Кбит/сек

Видео
Идентификатор : 1812 (0x714)
Идентификатор меню : 812 (0x32C)
Формат : AVC
Формат/Информация : Advanced Video Codec
Профиль формата : High@L4.0
Параметр CABAC формата : Да
Параметр ReFrames формата : 4 кадра
Идентификатор кодека : 27
Продолжительность : 1 ч. 22 м.
Битрейт : 6738 Кбит/сек
Ширина : 1920 пикселей
Высота : 1080 пикселей
Соотношение сторон : 16:9
Частота кадров : 25,000 кадров/сек
Стандарт вещания : PAL
Цветовое пространство : YUV
Субдискретизация насыщенности : 4:2:0
Битовая глубина : 8 бит
Тип развёртки : MBAFF
Бит/(Пиксели*Кадры) : 0.130
Размер потока : 3,86 Гбайт (85%)
Основные цвета : BT.709
Характеристики трансфера : BT.709
Коэффициенты матрицы : BT.709

Аудио #1
Идентификатор : 2812 (0xAFC)
Идентификатор меню : 812 (0x32C)
Формат : MPEG Audio
Версия формата : Version 1
Профиль формата : Layer 2
Идентификатор кодека : 4
Продолжительность : 1 ч. 22 м.
Вид битрейта : Постоянный
Битрейт : 192 Кбит/сек
Каналы : 2 канала
Частота : 48,0 КГц
Метод сжатия : С потерями
Задержка видео : 81 мс.
Размер потока : 113 Мбайт (2%)
Язык : std
Язык, дополнительно : Clean effects

Аудио #2
Идентификатор : 3812 (0xEE4)
Идентификатор меню : 812 (0x32C)
Формат : MPEG Audio
Версия формата : Version 1
Профиль формата : Layer 2
Идентификатор кодека : 4
Продолжительность : 1 ч. 22 м.
Вид битрейта : Постоянный
Битрейт : 192 Кбит/сек
Каналы : 2 канала
Частота : 48,0 КГц
Метод сжатия : С потерями
Задержка видео : 81 мс.
Размер потока : 113 Мбайт (2%)
Язык : std
Язык, дополнительно : Clean effects

Аудио #3
Идентификатор : 4812 (0x12CC)
Идентификатор меню : 812 (0x32C)
Формат : AC-3
Формат/Информация : Audio Coding 3
Расширение режима : CM (complete main)
Параметр Endianness формата : Big
Идентификатор кодека : 6
Продолжительность : 1 ч. 22 м.
Вид битрейта : Постоянный
Битрейт : 384 Кбит/сек
Каналы : 6 каналов
Расположение каналов : Front: L C R, Side: L R, LFE
Частота : 48,0 КГц
Битовая глубина : 16 бит
Метод сжатия : С потерями
Задержка видео : 5 мс.
Размер потока : 225 Мбайт (5%)
Язык : std
Язык, дополнительно : Clean effects

Текст #1
Идентификатор : 63 (0x3F)-100
Идентификатор меню : 812 (0x32C)
Формат : Teletext

Текст #2
Идентификатор : 63 (0x3F)-888
Идентификатор меню : 812 (0x32C)
Формат : Teletext

Меню
Идентификатор : 812 (0x32C)
Идентификатор меню : 812 (0x32C)
Продолжительность : 1 ч. 22 м.
Список : 1812 (0x714) (AVC) / 2812 (0xAFC) (MPEG Audio, std) / 3812 (0xEE4) (MPEG Audio, std) / 4812 (0x12CC) (AC-3, std) / 63 (0x3F) ()
Язык : / std / std / std

Рецензия, отзыв:

I just believe in me, Yoko and me

Это строки из песни Джонна Леннона God. В этой песне он говорит, что ни в кого не верит, что исчез прежний Джон, а остался только он, который верит в себя и своего любимого человека. Эта песня играет в конце фильма, когда Джон и Йоко улетают на самолете из Англии. Эта песня, по моему личному мнению, является кратким пересказем к этому фильму. Так как тот период, на котором сконцентрировался фильм, дает нам представление о переменах, которые происходили в нем.

Не понимаю, почему у этого фильма такой маленький рейтинг. Сюжет концентрируется на маленьком промежутке времени из жизни Джона Леннона, от распада группы The Beatles и до того, как Джон и Йоко покинули Англию. Тут писали, что Леннон тут показан очень грубым и взвинченным, я считаю что они не правы, потаму что и Джон и вся группа была на грани распада и так как их музыка не приносила удоволствия даже участникам, Джон переживал этот период тяжелее других. Привычный ритм сбился уже после смерти их продюсера, который был с ними практически с самого начала пути — Брайана Эпстайна. Группа ищет вдохновение в Ришикеше (Индия), изучая медитацию вместе с Махариши Махешем Йогой. Эти моменты в фильме идут как ответвления от главной сути фильма, точнее периода из жизни Леннона (1965 — 1970, плюс минус пару лет).

Главная часть фильма показывает нам взаимотношения отца Леннона, которого у него никогда не было и его самого. Я вычитала, что он появлялся в тот период Джона, конечно, мы не можем знать о чем они говорили между собой, поэтому в фильме в самом начале было предупреждение, что это всего лишь предположение. Но все же, песня Mother, написанная Ленноном, говорит сама за себя. Поэтаму не вижу ничего ужасного от того, что создатели высказали здесь свое предположение по этому поводу.

Так же тут показывают знакомство Джона и Йоко. Я никогда о Йоко ничего дурного не думала, и посмотрев фильм я еще раз убедилась, что она появилась в нужный момент жизни Леннона, именно такая опора ему и нужна была. Так что кто думает что она главная причина распада семьи Джона (брак с Синтией), распад Beatles и переезд Джона в Америку, вы не правы. Кстати о браке с Синтией, то, что я читала об их отношениях и то что показали здесь — полная правда. И об Америке, в конце он сказал что Нью-Йорк это второй Рим и если они переедут, над Йоко не будут издеваться, т. к. в Америке о них думают как о людей искусства (последнее сказала Йоко), — тоже правда, т. к. я это не только вычитала в книге о Ленноне, а сама видела это интервью. То, как они показали их отношения, об этом я прочитала ранее, а посмотрев фильм, просто укрепила свои знания.

Так как я являюсь поклонницей Джона, я не могла пропустить этот фильм. Леннон в тот момент был не похож на того самого Леннона из Beatles, это уже другой Леннон со своими идеями и совсем другой поэзией. Мир изменился и изменился сам Леннон, он пошел дальше, а Йоко, помогла найти ему свое место. Поэтаму если вы не поверили этому фильму, вы послушайте его песню, о которой я писала в самом начале, может вы хотя бы ему поверите и еще раз пересмотрите.
Скриншоты:


Все одноименные релизы в Клубе

Смотреть Online

http://moonwalk.cc/video/d472241f3a890e8b/iframe
Детали торрента:
Название:Джон Леннон / Lennon Naked (2010) HDTV [H.264/1080i]
Дата добавления:15 Ноя 2016 16:50:15
Размер:4,53 GB
Раздают:
Качают:0
Форум:Зарубежные Фильмы (HD, UHD-LQ)

All rights reserved © 2015-2018