TORRENTS43.COM

Скачать VA - Rough Guide To Ethiopian Jazz (2016) [FLAC|Lossless|tracks + .cue] <World Music, Ethiopian Jazz, Folk>


VA - Rough Guide To Ethiopian Jazz (2016)
Год: 2016
Жанр: World Music, Ethiopian Jazz, Folk
Страна: Ethiopia
Издание: World Music Network, Music Rough Guides - RGNET1350CD
Продолжительность: 00:54:39

Кодек: FLAC
Битрейт: Lossless
Тип рипа: tracks + .cue

Треклист:
01. Mulatu Astatke - Gamo 5:12
02. Akale Wube - Alegntaye 4:17
03. The Budos Band - Origin of Man 4:52
04. The Ex / Getatchew Mekurya - Ambassel 7:36
05. Tesfa Maryam Kidane - Heywete 5:13
06. Tlahoun Gessesse - Aykedashem Lebe 4:56
07. Samuel Yirga - Firma Ena Wereket 6:55
08. Gabriella Ghermandi - Be Kibir 8:15
09. Emahoy Tsegue-Maryam Guebrou - The Homeless Wanderer 7:05

Отчёт EAC:


Exact Audio Copy V1.3 from 2. September 2016

EAC extraction logfile from 17. November 2016, 16:24

Various Artists / The Rough Guide To Ethiopian Jazz

Used drive : ATAPI iHBS112 2 Adapter: 1 ID: 1

Read mode : Secure
Utilize accurate stream : Yes
Defeat audio cache : Yes
Make use of C2 pointers : No

Read offset correction : 6
Overread into Lead-In and Lead-Out : No
Fill up missing offset samples with silence : Yes
Delete leading and trailing silent blocks : No
Null samples used in CRC calculations : Yes
Used interface : Native Win32 interface for Win NT & 2000
Gap handling : Appended to previous track

Used output format : User Defined Encoder
Selected bitrate : 128 kBit/s
Quality : High
Add ID3 tag : No
Command line compressor : C:\Program Files (x86)\Exact Audio Copy\Flac\flac.exe
Additional command line options : -8 -V -T "ARTIST=%artist%" -T "TITLE=%title%" -T "ALBUM=%albumtitle%" -T "DATE=%year%" -T "TRACKNUMBER=%tracknr%" -T "GENRE=%genre%" -T "PERFORMER=%albuminterpret%" -T "COMPOSER=%composer%" -T "ALBUMARTIST=%albumartist%" -T "DISCNUMBER=%cdnumber%" -T "TOTALDISCS=%totalcds%" -T "TOTALTRACKS=%numtracks%" -T "COMMENT=EAC Secure Mode, Test & Copy, AccurateRip, FLAC -8" %source% -o %dest%

TOC of the extracted CD

Track | Start | Length | Start sector | End sector
---------------------------------------------------------
1 | 0:00.00 | 5:13.46 | 0 | 23520
2 | 5:13.46 | 4:19.13 | 23521 | 42958
3 | 9:32.59 | 4:54.35 | 42959 | 65043
4 | 14:27.19 | 7:37.58 | 65044 | 99376
5 | 22:05.02 | 5:15.29 | 99377 | 123030
6 | 27:20.31 | 4:58.44 | 123031 | 145424
7 | 32:19.00 | 6:57.54 | 145425 | 176753
8 | 39:16.54 | 8:18.00 | 176754 | 214103
9 | 47:34.54 | 7:05.21 | 214104 | 245999

Track 1

Filename D:\DL\Various Artists - The Rough Guide To Ethiopian Jazz (2016) [FLAC]\01 - Mulatu Astatke - Gamo.wav

Pre-gap length 0:00:02.00

Peak level 68.9 %
Extraction speed 5.3 X
Track quality 100.0 %
Test CRC 843A1ED6
Copy CRC 843A1ED6
Accurately ripped (confidence 2) [F30A93D2] (AR v2)
Copy OK

Track 2

Filename D:\DL\Various Artists - The Rough Guide To Ethiopian Jazz (2016) [FLAC]\02 - Akale Wube - Alegntaye.wav

Pre-gap length 0:00:01.45

Peak level 42.6 %
Extraction speed 5.8 X
Track quality 100.0 %
Test CRC F8952AF7
Copy CRC F8952AF7
Accurately ripped (confidence 2) [4DD9429F] (AR v2)
Copy OK

Track 3

Filename D:\DL\Various Artists - The Rough Guide To Ethiopian Jazz (2016) [FLAC]\03 - The Budos Band - Origin Of Man.wav

Pre-gap length 0:00:01.54

Peak level 43.9 %
Extraction speed 5.6 X
Track quality 99.9 %
Test CRC 984E1DB8
Copy CRC 984E1DB8
Accurately ripped (confidence 2) [67F6C31B] (AR v2)
Copy OK

Track 4

Filename D:\DL\Various Artists - The Rough Guide To Ethiopian Jazz (2016) [FLAC]\04 - Getatchew Mekuria & The Ex & Friends - Ambassel.wav

Pre-gap length 0:00:01.44

Peak level 67.5 %
Extraction speed 7.4 X
Track quality 100.0 %
Test CRC 7C514C4F
Copy CRC 7C514C4F
Accurately ripped (confidence 2) [3EC25323] (AR v2)
Copy OK

Track 5

Filename D:\DL\Various Artists - The Rough Guide To Ethiopian Jazz (2016) [FLAC]\05 - Tesfa-Maryam Kidane - Heywete.wav

Pre-gap length 0:00:02.00

Peak level 56.2 %
Extraction speed 6.8 X
Track quality 99.9 %
Test CRC 6879D7F9
Copy CRC 6879D7F9
Accurately ripped (confidence 2) [27F4A5D2] (AR v2)
Copy OK

Track 6

Filename D:\DL\Various Artists - The Rough Guide To Ethiopian Jazz (2016) [FLAC]\06 - Tlahoun Gessesse - Aykedashem Lebe.wav

Pre-gap length 0:00:01.70

Peak level 56.2 %
Extraction speed 8.2 X
Track quality 100.0 %
Test CRC 30E4F2B8
Copy CRC 30E4F2B8
Accurately ripped (confidence 2) [512179A9] (AR v2)
Copy OK

Track 7

Filename D:\DL\Various Artists - The Rough Guide To Ethiopian Jazz (2016) [FLAC]\07 - Samuel Yirga - Firma Ena Wereket.wav

Pre-gap length 0:00:02.00

Peak level 56.2 %
Extraction speed 9.0 X
Track quality 100.0 %
Test CRC 9EF7365E
Copy CRC 9EF7365E
Accurately ripped (confidence 2) [8E1A89E9] (AR v2)
Copy OK

Track 8

Filename D:\DL\Various Artists - The Rough Guide To Ethiopian Jazz (2016) [FLAC]\08 - Gabriella Ghermandi - Be Kibir.wav

Pre-gap length 0:00:02.00

Peak level 70.7 %
Extraction speed 8.8 X
Track quality 99.9 %
Test CRC 6AAF4030
Copy CRC 6AAF4030
Accurately ripped (confidence 2) [545F78FC] (AR v2)
Copy OK

Track 9

Filename D:\DL\Various Artists - The Rough Guide To Ethiopian Jazz (2016) [FLAC]\09 - Emahoy Tsegue - The Homeless Wanderer.wav

Pre-gap length 0:00:02.00

Peak level 100.0 %
Extraction speed 8.9 X
Track quality 99.9 %
Test CRC 7DFB225C
Copy CRC 7DFB225C
Accurately ripped (confidence 2) [37C45F99] (AR v2)
Copy OK

All tracks accurately ripped

No errors occurred

End of status report

---- CUETools DB Plugin V2.1.6

[CTDB TOCID: c1ddZnJSfl9AzdDzJ8WZoh6SsKg-] found
Submit result: c1ddZnJSfl9AzdDzJ8WZoh6SsKg- has been confirmed
Track | CTDB Status
1 | (4/4) Accurately ripped
2 | (4/4) Accurately ripped
3 | (4/4) Accurately ripped
4 | (4/4) Accurately ripped
5 | (4/4) Accurately ripped
6 | (4/4) Accurately ripped
7 | (4/4) Accurately ripped
8 | (4/4) Accurately ripped
9 | (4/4) Accurately ripped

==== Log checksum B6CBB52CACC299F2D5E159BC5525776E3961D415D127B73F54862B609360D235 ====

Cue Sheet (.cue):


REM GENRE Jazz
REM DATE 2016
REM DISCID 820CD009
REM COMMENT "ExactAudioCopy v1.3"
PERFORMER "Various Artists"
TITLE "The Rough Guide To Ethiopian Jazz"
FILE "01 - Mulatu Astatke - Gamo.flac" WAVE
TRACK 01 AUDIO
TITLE Gamo
PERFORMER "Mulatu Astatke"
INDEX 01 00:00:00
TRACK 02 AUDIO
TITLE Alegntaye
PERFORMER "Akale Wube"
INDEX 00 05:12:01
FILE "02 - Akale Wube - Alegntaye.flac" WAVE
INDEX 01 00:00:00
TRACK 03 AUDIO
TITLE "Origin Of Man"
PERFORMER "The Budos Band"
INDEX 00 04:17:34
FILE "03 - The Budos Band - Origin Of Man.flac" WAVE
INDEX 01 00:00:00
TRACK 04 AUDIO
TITLE Ambassel
PERFORMER "Getatchew Mekuria & The Ex & Friends"
INDEX 00 04:52:66
FILE "04 - Getatchew Mekuria & The Ex & Friends - Ambassel.flac" WAVE
INDEX 01 00:00:00
TRACK 05 AUDIO
TITLE Heywete
PERFORMER "Tesfa-Maryam Kidane"
INDEX 00 07:35:58
FILE "05 - Tesfa-Maryam Kidane - Heywete.flac" WAVE
INDEX 01 00:00:00
TRACK 06 AUDIO
TITLE "Aykedashem Lebe"
PERFORMER "Tlahoun Gessesse"
INDEX 00 05:13:34
FILE "06 - Tlahoun Gessesse - Aykedashem Lebe.flac" WAVE
INDEX 01 00:00:00
TRACK 07 AUDIO
TITLE "Firma Ena Wereket"
PERFORMER "Samuel Yirga"
INDEX 00 04:56:44
FILE "07 - Samuel Yirga - Firma Ena Wereket.flac" WAVE
INDEX 01 00:00:00
TRACK 08 AUDIO
TITLE "Be Kibir"
PERFORMER "Gabriella Ghermandi"
INDEX 00 06:55:54
FILE "08 - Gabriella Ghermandi - Be Kibir.flac" WAVE
INDEX 01 00:00:00
TRACK 09 AUDIO
TITLE "The Homeless Wanderer"
PERFORMER "Emahoy Tsegue"
INDEX 00 08:16:00
FILE "09 - Emahoy Tsegue - The Homeless Wanderer.flac" WAVE
INDEX 01 00:00:00

Отчёт auCDtect Task manager:


-----------------------

DON'T MODIFY THIS FILE

-----------------------

PERFORMER: auCDtect Task Manager, ver. 1.6.0 RC1 build 1.6.0.1
Copyright (c) 2008-2010 y-soft. All rights reserved
http://y-soft.org

ANALYZER: auCDtect: CD records authenticity detector, version 0.8.2
Copyright (c) 2004 Oleg Berngardt. All rights reserved.
Copyright (c) 2004 Alexander Djourik. All rights reserved.

FILE: 01 - Mulatu Astatke - Gamo.flac
Size: 33716556 Hash: 780D2D4A81921E27A2E1ADCC7D23A657 Accuracy: -m0
Conclusion: CDDA 100%
Signature: 0AD5E87682BBE6BC779D886D0E41A4FAF8543224
FILE: 02 - Akale Wube - Alegntaye.flac
Size: 24653875 Hash: 3ED81A1B5D0914641C5C4149AC6C1C0D Accuracy: -m0
Conclusion: CDDA 100%
Signature: 63E66D989BEC07DEB5BCA9AC53F3E34A92C2EC57
FILE: 03 - The Budos Band - Origin Of Man.flac
Size: 29055417 Hash: F31A1735E2C540D12B16855DE7667D85 Accuracy: -m0
Conclusion: CDDA 100%
Signature: BCC9C78F49C4390E395E16A297DB2E30C6754026
FILE: 04 - Getatchew Mekuria & The Ex & Friends - Ambassel.flac
Size: 46385780 Hash: 3E4674B03A814CA762DC7F688EE60A56 Accuracy: -m0
Conclusion: CDDA 99%
Signature: BA6C9B83266551E60FC20491F2638194AE98FEF3
FILE: 05 - Tesfa-Maryam Kidane - Heywete.flac
Size: 27614715 Hash: AC6CE84EB38346EDD8001C47362B59D2 Accuracy: -m0
Conclusion: CDDA 100%
Signature: 26F3B63BCEC625C02C01A5E1F8E31652D2F0909D
FILE: 06 - Tlahoun Gessesse - Aykedashem Lebe.flac
Size: 21792857 Hash: 3673CBFC7CC25EAA14E8CE618F15B56D Accuracy: -m0
Conclusion: CDDA 43%
Signature: 34E11B229609F64BD550EC3246D73E5365F456DC
FILE: 07 - Samuel Yirga - Firma Ena Wereket.flac
Size: 37008262 Hash: 42E525055E807B4A426680293B68A2EA Accuracy: -m0
Conclusion: CDDA 100%
Signature: 575FE39059F5B7B5C5BC4A28086C399784DF813C
FILE: 08 - Gabriella Ghermandi - Be Kibir.flac
Size: 49312500 Hash: 51DC962A4AAC4E6A031E09A432303F5D Accuracy: -m0
Conclusion: CDDA 100%
Signature: BC1C8922EFBF4AD266FBA946F627BEC7F06BACA7
FILE: 09 - Emahoy Tsegue - The Homeless Wanderer.flac
Size: 27489311 Hash: 02466DCA211456A8F6EAD4C083335C13 Accuracy: -m0
Conclusion: MPEG 100%
Signature: 66DD07AB3E7A018FBB3FAEBD1A1A2E229FCE5C6E

Спектрограмма:



Детали торрента:
Название:VA - Rough Guide To Ethiopian Jazz (2016) [FLAC|Lossless|tracks + .cue] <World Music, Ethiopian Jazz, Folk>
Дата добавления:18 Ноя 2016 09:41:09
Размер:290 MB
Раздают:1
Качают:0
Форум:Jazz (Lossless)

All rights reserved © 2015-2018