TORRENTS43.COM

Скачать Коварство / Malizia (1973) DVDRip [VO]


Коварство / Malizia (1973) DVDRip
Производство: Италия
Жанр: Фэнтези, комедия

Режиссер: Сальваторе Сампери
Актеры: Лаура Антонелли, Тури Ферро, Алессандро Момо, Тина Омон, Лилла Бриньоне, Пино Карузо, Анджела Люче, Стефано Амато, Джанлуиджи Чирицци, Грация Ди Марца ...

Описание: Солидный отец семейства лишается безвременно отошедшей в мир иной супруги. И вовсе бы была жизнь семейства тоскливой и скучной, когда бы не появившаяся в доме экономка в исполнении Лауры Антонелли, которая и обед скулинарить — завсегда, и занять место в сексуальных фантазиях юных отпрысков тоже за милую душу. Ну, а с учётом того, что у овдовевшего главы семейства седина в гипотетическую бороду, а бес в ребро…


Возраст: 18+ (зрителям, достигшим 18 лет. запрещено для детей)
Рейтинг MPAA: R (лицам до 17 лет обязательно присутствие взрослого)

Продолжительность: 01:33:20
Качество видео: DVDRip
Перевод: Любительский одноголосый
Субтитры: Отсутствуют

Видео: MPEG4, XviD, 720x288 (2.500), 25.000 fps, 2 893 Kbps (0.558 bit/pixel)
Аудио #1: AC-3, 48.0 KHz, 2 ch, 192 Kbps, CBR | Русский
Аудио #2: AC-3, 48.0 KHz, 2 ch, 192 Kbps, CBR | Итальянский

MediaInfo:


Общее
Полное имя : C:\NNM\Коварство\Kovarstvo 1973 DVDRip.avi
Формат : AVI
Формат/Информация : Audio Video Interleave
Профиль формата : OpenDML
Размер файла : 2,15 Гбайт
Продолжительность : 1 ч. 33 м.
Общий поток : 3295 Кбит/сек
Программа кодирования : FairUse Wizard
Библиотека кодирования : The best and REALLY easy backup tool

Видео
Идентификатор : 0
Формат : MPEG-4 Visual
Профиль формата : Advanced Simple@L5
Параметр BVOP формата : 1
Параметр QPel формата : Нет
Параметр GMC формата : Без точки перехода
Параметр матрицы формата : Default (MPEG)
Режим смешивания : Сжатый битовый поток
Идентификатор кодека : XVID
Идентификатор кодека/Подсказка : XviD
Продолжительность : 1 ч. 33 м.
Битрейт : 2893 Кбит/сек
Ширина : 720 пикселей
Высота : 288 пикселей
Соотношение сторон : 2,500
Частота кадров : 25,000 кадров/сек
Цветовое пространство : YUV
Субдискретизация насыщенности : 4:2:0
Битовая глубина : 8 бит
Тип развёртки : Прогрессивная
Метод сжатия : С потерями
Бит/(Пиксели*Кадры) : 0.558
Размер потока : 1,89 Гбайт (88%)
Библиотека кодирования : XviD 1.2.0.dev47 (UTC 2006-11-01)

Аудио #1
Идентификатор : 1
Формат : AC-3
Формат/Информация : Audio Coding 3
Расширение режима : CM (complete main)
Параметр Endianness формата : Big
Идентификатор кодека : 2000
Продолжительность : 1 ч. 33 м.
Вид битрейта : Постоянный
Битрейт : 192 Кбит/сек
Каналы : 2 канала
Расположение каналов : Front: L R
Частота : 48,0 КГц
Частота кадров : 31,250 кадров/сек (1536 spf)
Метод сжатия : С потерями
Размер потока : 128 Мбайт (6%)
Выравнивание : Разделение по промежуткам
Продолжительность промежутка : 40 мс. (1,00 видеокадр)
Время предзагрузки промежутка : 500 мс.

Аудио #2
Идентификатор : 2
Формат : AC-3
Формат/Информация : Audio Coding 3
Расширение режима : CM (complete main)
Параметр Endianness формата : Big
Идентификатор кодека : 2000
Продолжительность : 1 ч. 33 м.
Вид битрейта : Постоянный
Битрейт : 192 Кбит/сек
Каналы : 2 канала
Расположение каналов : Front: L R
Частота : 48,0 КГц
Частота кадров : 31,250 кадров/сек (1536 spf)
Метод сжатия : С потерями
Размер потока : 128 Мбайт (6%)
Выравнивание : Разделение по промежуткам
Продолжительность промежутка : 40 мс. (1,00 видеокадр)
Время предзагрузки промежутка : 500 мс.
Скриншоты:
Все релизы фильма «Коварство» на Torrents43.com

Смотреть Online

http://moonwalk.cc/video/a4531bb5548c44b4/iframe
Детали торрента:
Название:Коварство / Malizia (1973) DVDRip [VO]
Дата добавления:19 Ноя 2016 11:45:47
Размер:2,15 GB
Раздают:
Качают:0
Форум:Зарубежная Классика (HD*Rip/LQ, DVDRip, SATRip, VHSRip)

All rights reserved © 2015-2018