TORRENTS43.COM

Скачать Анатомия страсти / Анатомия Грей / Grey's Anatomy (2016) WEB-DL [H.264/720p-LQ] (сезон 13, серии 1-24 из 24) Fox Life


Анатомия страсти / Анатомия Грей / Grey's Anatomy (2016) WEB-DL [H.264/720p-LQ] (сезон 13, серии 1-24 из 24) Fox Life
Производство: США
Жанр: драма, мелодрама

Режиссер: Роб Корн
Актеры: Эллен Помпео, Сандра О, Джастин Чэмберс, Патрик Дэмпси, Сара Рамирез, Джеймс Пикенс мл., Чэндра Уилсон, Кевин МакКидд, Джессика Кэпшоу и др.

Описание:
Анатомия страсти – это захватывающий своим сюжетом, драматичностью и не ординарностью сериал. В фильме описывается жизнь молодых хирургов, которые посвящают свою жизнь работе в клинике, операциям и пациентам. Но так же не забывают про личную жизнь, которую они с лёгкостью устраивают на рабочем месте. Сериал показывает повседневную жизнь простых врачей, их проблемы, разочарования, неудачи и то, как друзья помогают справиться с навалившимися трудностями на работе и в личной жизни. Каждая серия - это история наполненная интересными открытиями в хирургии, жизненными историями взаимопониманием между коллегами.


Возраст: 16+ (зрителям, достигшим 16 лет)

Продолжительность: ~00:40:00 серия
Качество видео: WEB-DL
Перевод: многоголосый закадровый, профессиональный - Fox Life
Субтитры: английские

Видео: AVC/H.264, 1280x720 (16:9), ~4164 kbps
Аудио#1: AC3, 48 kHz, 2 ch, 192 kbps - русский, многоголосый закадровый
Аудио#2: AC3, 48 kHz, 6 ch, 384 kbps - английский

Mediainfo:


Общее
Уникальный идентификатор : 254021121476891009347914366712992721605 (0xBF1AB03D5615C2578AF9AAE0058B6AC5)
Полное имя : Greys.Anatomy.S13.720p.WEB-DL.Rus.Eng.CasStudio\Greys.Anatomy.S13E01.720p.WEB-DL.Rus.Eng.CasStudio.mkv
Формат : Matroska
Версия формата : Version 2
Размер файла : 1,39 Гбайт
Продолжительность : 41 м. 16 с.
Общий поток : 4836 Кбит/сек
Название фильма : Greys Anatomy (2016) 13x01 - Release by SerGV for CasStudio.TV
Дата кодирования : UTC 2016-10-28 13:57:59
Программа кодирования : mkvmerge v4.2.0 ('No Talking') сборка от Jul 28 2010 18:38:23
Библиотека кодирования : libebml v1.0.0 + libmatroska v1.0.0
Обложка : Yes
Attachments : cover.jpg

Видео
Идентификатор : 1
Формат : AVC
Формат/Информация : Advanced Video Codec
Профиль формата : High@L3.1
Параметр CABAC формата : Нет
Параметр ReFrames формата : 2 кадра
Режим смешивания : Header stripping
Идентификатор кодека : V_MPEG4/ISO/AVC
Продолжительность : 41 м. 16 с.
Битрейт : 4164 Кбит/сек
Ширина : 1280 пикселей
Высота : 720 пикселей
Соотношение сторон : 16:9
Режим частоты кадров : Постоянный
Частота кадров : 25,000 кадров/сек
Цветовое пространство : YUV
Субдискретизация насыщенности : 4:2:0
Битовая глубина : 8 бит
Тип развёртки : Прогрессивная
Бит/(Пиксели*Кадры) : 0.181
Размер потока : 1,20 Гбайт (86%)
Заголовок : Greys Anatomy 13x01: Undo - Release by SerGV for CasStudio.TV
Язык : English
Default : Да
Forced : Нет
Цветовой диапазон : Limited
Основные цвета : BT.709
Характеристики трансфера : BT.709
Коэффициенты матрицы : BT.709

Аудио #1
Идентификатор : 2
Формат : AC-3
Формат/Информация : Audio Coding 3
Расширение режима : CM (complete main)
Параметр Endianness формата : Big
Режим смешивания : Header stripping
Идентификатор кодека : A_AC3
Продолжительность : 41 м. 16 с.
Вид битрейта : Постоянный
Битрейт : 192 Кбит/сек
Каналы : 2 канала
Расположение каналов : Front: L R
Частота : 48,0 КГц
Частота кадров : 31,250 кадров/сек (1536 spf)
Битовая глубина : 16 бит
Метод сжатия : С потерями
Размер потока : 56,7 Мбайт (4%)
Заголовок : DD 2.0 @ 192 kbps - Многоголосый закадровый, Fox Life
Язык : Russian
Default : Да
Forced : Нет

Аудио #2
Идентификатор : 3
Формат : AC-3
Формат/Информация : Audio Coding 3
Расширение режима : CM (complete main)
Параметр Endianness формата : Big
Режим смешивания : Header stripping
Идентификатор кодека : A_AC3
Продолжительность : 41 м. 16 с.
Вид битрейта : Постоянный
Битрейт : 384 Кбит/сек
Каналы : 6 каналов
Расположение каналов : Front: L C R, Side: L R, LFE
Частота : 48,0 КГц
Частота кадров : 31,250 кадров/сек (1536 spf)
Битовая глубина : 16 бит
Метод сжатия : С потерями
Размер потока : 113 Мбайт (8%)
Заголовок : DD 5.1 @ 384 kbps - Original
Язык : English
Default : Нет
Forced : Нет

Текст
Идентификатор : 4
Формат : UTF-8
Идентификатор кодека : S_TEXT/UTF8
Идентификатор кодека/Информация : UTF-8 Plain Text
Язык : English
Default : Нет
Forced : Нет

Подготовка релиза:

Запись звука: Bartikus, SerGV
Сведение звука: SerGV
Скриншоты:


Все раздачи сериала "Анатомия страсти / Анатомия Грей / Grey's Anatomy"

Смотреть Online

http://moonwalk.cc/serial/90abfe5e8a9a557486b7e96f9cd128fc/iframe
Детали торрента:
Название:Анатомия страсти / Анатомия Грей / Grey's Anatomy (2016) WEB-DL [H.264/720p-LQ] (сезон 13, серии 1-24 из 24) Fox Life
Дата добавления:02 Июн 2017 12:54:18
Размер:33,6 GB
Раздают:8
Качают:1
Форум:Анатомия страсти / Grey's Anatomy

All rights reserved © 2015-2018