TORRENTS43.COM

Скачать Арабеска / Arabesque (1966) BDRip [H.265/1080p-LQ]


Арабеска / Arabesque (1966) BDRip
Производство: США / Stanley Donen Films
Жанр: Боевик, Драма, Мелодрама, Приключения

Режиссер: Стенли Донен
Актеры: Грегори Пек, Софи Лорен, Алан Бэдел, Кирон Мур, Карл Дюринг, Джон Меривэйл, Дункан Ламонт, Джордж Кулурис, Эрнест Кларк, Харольд Каскет

Описание:
Американский профессор, специализирующийся на иероглифах, приезжает в Оксфорд, чтобы расшифровать секретное сообщение, содержание которого интересует и шпионов, и нефтяных шейхов и ряд лидеров Ближнего Востока. Ему помогает сексапильная любовница нефтяного магната с политическими амбициями.



Релиз от: Luigi36
Продолжительность: 01:45:24
Качество видео: BDRip
Перевод: Многоголосый закадровый

Видео: HEVC/H.265, 1920x816, ~4300 Kbps
Аудио: AC3, 2 ch, 192 Kbps, CBR

Mediainfo:


Общее
Уникальный идентификатор : 213559382171865007446418135168406337879 (0xA0AA0A789DD96F42A073CF6C948D3957)
Полное имя : E:\Video\Арабеска (Arabesque).mkv
Формат : Matroska
Версия формата : Version 4 / Version 2
Размер файла : 3,31 Гбайт
Продолжительность : 1 ч. 45 м.
Общий поток : 4494 Кбит/сек
Название фильма : Арабеска / Arabesque
Дата кодирования : UTC 2016-11-26 13:23:15
Программа кодирования : mkvmerge v9.0.1 ('Obstacles') 64bit
Библиотека кодирования : libebml v1.3.3 + libmatroska v1.4.4
Attachments : e239442458a9d85072877b8772f75a70.jpg

Видео
Идентификатор : 1
Формат : HEVC
Формат/Информация : High Efficiency Video Coding
Профиль формата : Main@L4@Main
Идентификатор кодека : V_MPEGH/ISO/HEVC
Продолжительность : 1 ч. 45 м.
Битрейт : 4300 Кбит/сек
Ширина : 1920 пикселей
Высота : 816 пикселей
Соотношение сторон : 2,35:1
Режим частоты кадров : Постоянный
Частота кадров : 23,976 (24000/1001) кадра/сек
Цветовое пространство : YUV
Субдискретизация насыщенности : 4:2:0
Битовая глубина : 8 бит
Бит/(Пиксели*Кадры) : 0.114
Размер потока : 3,17 Гбайт (96%)
Заголовок : Arabesque BdRip 1080p HEVC (*** Luigi36 ***)
Библиотека кодирования : x265 2.0:[Windows][GCC 5.4.0][64 bit] 8bit
Настройки программы : wpp / ctu=64 / min-cu-size=8 / max-tu-size=32 / tu-intra-depth=1 / tu-inter-depth=1 / me=1 / subme=1 / merange=57 / no-rect / no-amp / max-merge=2 / temporal-mvp / early-skip / rskip / rdpenalty=0 / no-tskip / no-tskip-fast / strong-intra-smoothing / no-lossless / no-cu-lossless / no-constrained-intra / fast-intra / open-gop / no-temporal-layers / interlace=0 / keyint=240 / min-keyint=24 / scenecut=40 / rc-lookahead=15 / lookahead-slices=5 / bframes=4 / bframe-bias=0 / b-adapt=0 / ref=2 / limit-refs=3 / no-limit-modes / weightp / no-weightb / aq-mode=1 / qg-size=32 / aq-strength=1.00 / cbqpoffs=0 / crqpoffs=0 / rd=2 / psy-rd=2.00 / rdoq-level=0 / psy-rdoq=0.00 / no-rd-refine / signhide / deblock=0:0 / sao / no-sao-non-deblock / b-pyramid / cutree / no-intra-refresh / rc=crf / crf=20.0 / qcomp=0.60 / qpmin=0 / qpmax=51 / qpstep=4 / ipratio=1.40 / pbratio=1.30
Default : Да
Forced : Нет
Цветовой диапазон : Limited
Основные цвета : BT.709
Характеристики трансфера : BT.709
Коэффициенты матрицы : BT.709

Аудио
Идентификатор : 2
Формат : AC-3
Формат/Информация : Audio Coding 3
Расширение режима : CM (complete main)
Параметр Endianness формата : Big
Идентификатор кодека : A_AC3
Продолжительность : 1 ч. 45 м.
Вид битрейта : Постоянный
Битрейт : 192 Кбит/сек
Каналы : 2 канала
Расположение каналов : Front: L R
Частота : 48,0 КГц
Частота кадров : 31,250 кадров/сек (1536 spf)
Метод сжатия : С потерями
Задержка видео : 900 мс.
Размер потока : 145 Мбайт (4%)
Заголовок : Перевод: Профессиональный (многоголосый закадровый)
Язык : Russian
Default : Да
Forced : Нет

XMP
Xmp.video.FileName : E:\Video\Арабеска (Arabesque).mkv
Xmp.video.FileSize : -707.706
Xmp.video.MimeType : video/matroska
Xmp.video.EBMLVersion : 1
Xmp.video.EBMLReadVersion : 1
Xmp.video.DocType : matroska
Xmp.video.DocTypeVersion : 4
Xmp.video.DocTypeReadVersion : 2
Xmp.video.TimecodeScale : 0.001
Xmp.video.MuxingApp : libebml v1.3.3 + libmatroska v1.4.4
Xmp.video.WritingApp : mkvmerge v9.0.1 ('Obstacles') 64bit
Xmp.video.Duration : 6324443
Xmp.video.DateUTC : 501859395
Xmp.video.Title : Арабеска / Arabesque
Xmp.video.TotalStream : 2
Xmp.video.TrackLacing : No
Xmp.video.Codec : V_MPEGH/ISO/HEVC
Xmp.video.FrameRate : 23.976
Xmp.video.TrackLang : und
Xmp.video.TrackName : Перевод: Профессиональный (многоголосый закадровый)
Xmp.video.Width : 1920
Xmp.video.Height : 816
Xmp.audio.Compressor : A_AC3
Xmp.audio.DefaultDuration : 32000
Xmp.audio.TrackLang : rus
Xmp.audio.SampleRate : 48000
Xmp.audio.ChannelType : Stereo
Xmp.video.AttachFileName : e239442458a9d85072877b8772f75a70.jpg
Xmp.video.AttachFileMIME : image/jpeg
Xmp.video.AttachFileUID : 9038488050851305092
Xmp.video.AttachFileDesc : Cover
Xmp.video.AspectRatio : 2.35:1
Скриншоты:


Все одноименные релизы в Клубе
Детали торрента:
Название:Арабеска / Arabesque (1966) BDRip [H.265/1080p-LQ]
Дата добавления:27 Ноя 2016 07:55:01
Размер:3,31 GB
Раздают:1
Качают:0
Форум:Зарубежная Классика (HD*Rip/LQ, DVDRip, SATRip, VHSRip)

All rights reserved © 2015-2018