TORRENTS43.COM

Скачать Любовь не по размеру / Un homme a la hauteur (2016) HDRip [H.264]


Любовь не по размеру / Un homme a la hauteur (2016) HDRip
Производство: Франция
Жанр: Комедия

Режиссер: Лоран Тирар
Актеры: Жан Дюжарден, Виржини Эфира, Седрик Кан, Стефани Папаниан, Сезар Домбуа, Эдмон Франчи, Мануэлль Гайар, Бруно Гомила, Камилль Дамур, Франсуа-Доминик Блен

Описание: Потерянный мобильник оборачивается для Дианы знакомством с поистине невероятным человеком по имени Александр. Он умен, неутомим и чертовски обаятелен. У него замечательное чувство юмора и, кажется, нет недостатков. Кроме одного… Его рост — чуть больше метра. Это небольшое препятствие оказывается источником огромных проблем и множества неудобных и смешных ситуаций для Дианы. Но настоящая любовь может победить всё, если, конечно, это очень большая любовь.


Возраст: 16+ (зрителям, достигшим 16 лет)
Рейтинг MPAA: R (лицам до 17 лет обязательно присутствие взрослого)
Дата мировой премьеры: 25 апреля 2016
Дата российской премьеры: 12 мая 2016

Продолжительность: 01:37:57
Качество видео: HDRip (AVC)
Перевод: Дублированный (Лицензия)
Субтитры: Отсутствуют

Видео: AVC, 1024x428 (2.35:1), 24.000 fps, 2 200 Kbps (0.209 bit/pixel)
Аудио #1: AC-3, 48.0 KHz, 6 ch, 448 Kbps, CBR | Русский
Аудио #2: AC-3, 48.0 KHz, 6 ch, 384 Kbps, CBR | Французский

MediaInfo:


Общее
Уникальный идентификатор : 244945269061359730548954330879762986378 (0xB846BE2AE6CDB857A5C1AFBF73C5758A)
Полное имя : C:\NNM\Любовь не по размеру\Lubovj ne po razmeru 2016 HDRip-AVC.mkv
Формат : Matroska
Версия формата : Version 2
Размер файла : 2,08 Гбайт
Продолжительность : 1 ч. 37 м.
Общий поток : 3033 Кбит/сек
Дата кодирования : UTC 2016-12-03 19:35:33
Программа кодирования : mkvmerge v5.8.0 ('No Sleep / Pillow') built on Sep 2 2012 15:37:04
Библиотека кодирования : libebml v1.2.3 + libmatroska v1.3.0

Видео
Идентификатор : 1
Формат : AVC
Формат/Информация : Advanced Video Codec
Профиль формата : High@L4.1
Параметр CABAC формата : Да
Параметр ReFrames формата : 12 кадров
Идентификатор кодека : V_MPEG4/ISO/AVC
Продолжительность : 1 ч. 37 м.
Битрейт : 2200 Кбит/сек
Ширина : 1024 пикселя
Высота : 428 пикселей
Соотношение сторон : 2,40:1
Режим частоты кадров : Постоянный
Частота кадров : 24,000 кадра/сек
Цветовое пространство : YUV
Субдискретизация насыщенности : 4:2:0
Битовая глубина : 8 бит
Тип развёртки : Прогрессивная
Бит/(Пиксели*Кадры) : 0.209
Размер потока : 1,46 Гбайт (71%)
Заголовок : Video_
Библиотека кодирования : x264 core 148 r2638 7599210
Настройки программы : cabac=1 / ref=12 / deblock=1:-2:-2 / analyse=0x3:0x113 / me=umh / subme=10 / psy=1 / psy_rd=1.05:0.10 / mixed_ref=1 / me_range=32 / chroma_me=1 / trellis=2 / 8x8dct=1 / cqm=0 / deadzone=21,11 / fast_pskip=0 / chroma_qp_offset=-3 / threads=6 / lookahead_threads=1 / sliced_threads=0 / nr=0 / decimate=0 / interlaced=0 / bluray_compat=0 / constrained_intra=0 / bframes=16 / b_pyramid=2 / b_adapt=2 / b_bias=0 / direct=3 / weightb=1 / open_gop=0 / weightp=2 / keyint=250 / keyint_min=24 / scenecut=40 / intra_refresh=0 / rc=2pass / mbtree=0 / bitrate=2200 / ratetol=1.0 / qcomp=0.60 / qpmin=0 / qpmax=69 / qpstep=4 / cplxblur=20.0 / qblur=0.5 / ip_ratio=1.40 / pb_ratio=1.30 / aq=1:1.00
Язык : French
Default : Да
Forced : Нет
Цветовой диапазон : Limited
Основные цвета : BT.709
Характеристики трансфера : BT.709
Коэффициенты матрицы : BT.709

Аудио #1
Идентификатор : 2
Формат : AC-3
Формат/Информация : Audio Coding 3
Расширение режима : CM (complete main)
Параметр Endianness формата : Big
Идентификатор кодека : A_AC3
Продолжительность : 1 ч. 37 м.
Вид битрейта : Постоянный
Битрейт : 448 Кбит/сек
Каналы : 6 каналов
Расположение каналов : Front: L C R, Side: L R, LFE
Частота : 48,0 КГц
Частота кадров : 31,250 кадров/сек (1536 spf)
Метод сжатия : С потерями
Размер потока : 314 Мбайт (15%)
Заголовок : DUB [Лицензия]
Язык : Russian
Default : Да
Forced : Нет

Аудио #2
Идентификатор : 3
Формат : AC-3
Формат/Информация : Audio Coding 3
Расширение режима : CM (complete main)
Параметр Endianness формата : Big
Идентификатор кодека : A_AC3
Продолжительность : 1 ч. 37 м.
Вид битрейта : Постоянный
Битрейт : 384 Кбит/сек
Каналы : 6 каналов
Расположение каналов : Front: L C R, Side: L R, LFE
Частота : 48,0 КГц
Частота кадров : 31,250 кадров/сек (1536 spf)
Метод сжатия : С потерями
Размер потока : 269 Мбайт (13%)
Язык : French
Default : Нет
Forced : Нет

Меню
00:00:00.000 : en:00:00:00.000
00:08:20.625 : en:00:08:20.625
00:16:43.083 : en:00:16:43.083
00:23:20.417 : en:00:23:20.417
00:33:15.458 : en:00:33:15.458
00:41:44.958 : en:00:41:44.958
00:50:28.125 : en:00:50:28.125
00:57:14.833 : en:00:57:14.833
01:06:03.417 : en:01:06:03.417
01:13:10.750 : en:01:13:10.750
01:23:15.625 : en:01:23:15.625
01:28:05.708 : en:01:28:05.708
Скриншоты:
Все релизы фильма «Любовь не по размеру» на Torrents43.com

Смотреть Online

http://moonwalk.cc/video/76a69dc7f3b13fe5/iframe
Детали торрента:
Название:Любовь не по размеру / Un homme a la hauteur (2016) HDRip [H.264]
Дата добавления:04 Дек 2016 09:24:50
Размер:2,08 GB
Раздают:12
Качают:0
Форум:Зарубежные Фильмы (HD*Rip/LQ, DVDRip, SATRip, VHSRip)

All rights reserved © 2015-2018