TORRENTS43.COM

Скачать Это любовь (2016) SATRip (сезон 2, серии 1-20 из 20)


Это любовь (2016) SATRip (сезон 2, серии 1-20 из 20)
Производство: Россия
Жанр: комедия

Режиссер: Александр Богданенко
Актеры: Инна Приходько, Константин Войтенко, Ольга Голдыс, Тимур Еремеев, Зоряна Марченко, Александр Ведменский, Яна Глущенко, Наталья Гнитий, Назар Заднепровский и др.

Описание:
Настя и Андрей совсем недавно решились на ответственный шаг — они съехались, налаживают совместный быт и начинают понимать, что для крепких отношений нужна не только любовь и романтика, но и терпение.. много терпения! Аня и Паша уже давно прошли этот этап — они успели обзавестись общей фамилией и маленьким ребенком, но только не собственным жильем. Счастье молодой семьи омрачает отец Ани, который так и не смог смириться с выбором дочери. С собственным выбором также не могут определиться друзья Оля и Дима, которые, проснувшись однажды в одной постели, не понимают, что их связывать — любовь или дружба? Зрителей вновь ждут истории из жизни друзей, пытающихся понять, что же такое настоящая любовь. Все образы главных героев взяты с реальных прототипов. Причем некоторые из них играют роли самих себя только под другими именами.


Возраст: 16+ (зрителям, достигшим 16 лет)

Продолжительность: ~ 00:24:00 серия
Качество видео: SATRip

Видео: Xvid, 720x400 (16:9), ~1800 kbpps
Аудио: MP3, 2 ch, 128 kbps

Mediainfo:


Общее
Полное имя : D:\СЕРИАЛЫ\ЭТО ЛЮБОВЬ\Jeto.ljubov.2.Sezon.2016.SATRip\Jeto.ljubov.2.01.avi
Формат : AVI
Формат/Информация : Audio Video Interleave
Размер файла : 322 Мбайт
Продолжительность : 23 м.
Общий поток : 1938 Кбит/сек
Программа кодирования : VirtualDubMod 1.5.10.3 | www.virtualdub-fr.org || (build 2550/release)
Библиотека кодирования : VirtualDubMod build 2550/release

Видео
Идентификатор : 0
Формат : MPEG-4 Visual
Профиль формата : Advanced Simple@L5
Параметр BVOP формата : 2
Параметр QPel формата : Нет
Параметр GMC формата : Без точки перехода
Параметр матрицы формата : Default (MPEG)
Идентификатор кодека : XVID
Идентификатор кодека/Подсказка : XviD
Продолжительность : 23 м.
Битрейт : 1800 Кбит/сек
Ширина : 720 пикселей
Высота : 400 пикселей
Соотношение сторон : 16:9
Частота кадров : 25,000 кадров/сек
Цветовое пространство : YUV
Субдискретизация насыщенности : 4:2:0
Битовая глубина : 8 бит
Тип развёртки : Прогрессивная
Метод сжатия : С потерями
Бит/(Пиксели*Кадры) : 0.250
Размер потока : 299 Мбайт (93%)
Библиотека кодирования : XviD 1.2.1 (UTC 2008-12-04)

Аудио
Идентификатор : 1
Формат : MPEG Audio
Версия формата : Version 1
Профиль формата : Layer 3
Идентификатор кодека : 55
Идентификатор кодека/Подсказка : MP3
Продолжительность : 23 м.
Вид битрейта : Постоянный
Битрейт : 128 Кбит/сек
Каналы : 2 канала
Частота : 48,0 КГц
Метод сжатия : С потерями
Размер потока : 21,2 Мбайт (7%)
Выравнивание : Соединение по промежуткам
Продолжительность промежутка : 40 мс. (1,00 видеокадр)
Время предзагрузки промежутка : 504 мс.
Библиотека кодирования : LAME3.99r
Настройки программы : -m s -V 4 -q 2 -lowpass 17 -b 128
Скриншоты:



Смотреть Online

http://moonwalk.cc/video/db56fab2c4a35c64/iframe
Детали торрента:
Название:Это любовь (2016) SATRip (сезон 2, серии 1-20 из 20)
Дата добавления:02 Янв 2017 14:12:05
Размер:6,44 GB
Раздают:
Качают:1
Форум:Отечественные сериалы

All rights reserved © 2015-2018