TORRENTS43.COM

Скачать Новогодний корпоратив / Office Christmas Party (2016) CamRip


Новогодний корпоратив / Office Christmas Party (2016) CamRip
Производство: США, Bluegrass Films, DreamWorks Pictures, DreamWorks SKG
Жанр: Комедия

Режиссер: Джош Гордон, Уилл Спек
Продюсер: Гаймон Кеседи, Дэниэл Раппапорт, Скотт Стубер
Актеры: Джейсон Бейтмен, Оливия Манн, ТиДжей Миллер, Дженнифер Энистон, Кейт МакКиннон, Кортни Б. Вэнс, Джиллиан Белл, Роб Кордри, Ванесса Байер, Рэндолл Парк

Описание:
Когда сестра героя, генеральный директор компании, угрожает брату закрыть его филиал, он устраивает эпическую рождественскую вечеринку, чтобы заполучить большого клиента и спасти фирму. Однако праздник выходит из-под контроля..


IMDB рейтинг: 5,7/10 - 532 голосов
Возраст: 18+ (зрителям, достигшим 18 лет. запрещено для детей)
Рейтинг MPAA: R (лицам до 17 лет обязательно присутствие взрослого)
Дата мировой премьеры: 7 декабря 2016
Дата российской премьеры: 8 декабря 2016, «Централ Партнершип»

Продолжительность: 01:38:05
Качество видео: CamRip
Перевод: Дублированный
Вид субтитров: Отсутствуют
Реклама: Присутствуют аудио и видео вставки рекламы

Видео: XviD, 720x304, 1722 kbps
Аудио: 48 kHz, AC3 Dolby Digital, 2/0 (L,R) ch, ~256 kbps

MI

Общее
Полное имя : D:\Новогодний.корпоратив.2016.CamRip.torrents43.com.avi
Формат : AVI
Формат/Информация : Audio Video Interleave
Размер файла : 1,36 Гбайт
Продолжительность : 1 ч. 38 м.
Общий поток : 1990 Кбит/сек
Программа кодирования : VirtualDubMod 1.5.10.2 (build 2540/release)
Библиотека кодирования : VirtualDub build 32507/release

Видео
Идентификатор : 0
Формат : MPEG-4 Visual
Профиль формата : Advanced Simple@L5
Параметр BVOP формата : 2
Параметр QPel формата : Нет
Параметр GMC формата : Без точки перехода
Параметр матрицы формата : Выборочная
Идентификатор кодека : XVID
Идентификатор кодека/Подсказка : XviD
Продолжительность : 1 ч. 38 м.
Битрейт : 1722 Кбит/сек
Ширина : 720 пикселей
Высота : 304 пикселя
Соотношение сторон : 2,35:1
Частота кадров : 29,970 кадров/сек
Цветовое пространство : YUV
Субдискретизация насыщенности : 4:2:0
Битовая глубина : 8 бит
Тип развёртки : Прогрессивная
Метод сжатия : С потерями
Бит/(Пиксели*Кадры) : 0.263
Размер потока : 1,18 Гбайт (87%)
Библиотека кодирования : XviD 1.2.1 (UTC 2008-12-04)

Аудио
Идентификатор : 1
Формат : AC-3
Формат/Информация : Audio Coding 3
Расширение режима : CM (complete main)
Параметр Endianness формата : Big
Идентификатор кодека : 2000
Продолжительность : 1 ч. 38 м.
Вид битрейта : Постоянный
Битрейт : 256 Кбит/сек
Каналы : 2 канала
Расположение каналов : Front: L R
Частота : 48,0 КГц
Метод сжатия : С потерями
Задержка видео : 9 мс.
Размер потока : 180 Мбайт (13%)
Выравнивание : Разделение по промежуткам
Продолжительность промежутка : 33 мс. (1,00 видеокадр)
Время предзагрузки промежутка : 500 мс.
Скриншоты:



Смотреть Online

http://moonwalk.cc/video/72bee7a89a55f4f1/iframe
Детали торрента:
Название:Новогодний корпоратив / Office Christmas Party (2016) CamRip
Дата добавления:08 Дек 2016 20:31:25
Размер:1,36 GB
Раздают:6
Качают:0
Форум:Архив неактуальных Экранок и видео с Рекламой

All rights reserved © 2015-2018