TORRENTS43.COM

Скачать Хранитель / The Keeper (2009) BDRip [H.264/1080p-LQ]


Хранитель / The Keeper (2009) BDRip [H.264/1080p-LQ]«Не стой у него на пути...»
Производство: США / Keeper Movie Productions, Steamroller Productions
Жанр: Боевик, Триллер, Криминал

Режиссер: Киони Ваксман
Актеры: Стивен Сигал, Лайзл Карстенс, Аррон Шивер, Джонни Гектор, Стеф ДюВалл, Люче Рэйнс, Кевин Уиггинс, Трине Кристенсен, Томас Санчес, Рио Александр, Джесика Уильямс, Чарли Б. Браун, Шери ДеЯнг

Описание:
Ролланд Саллинджер был крутым полицейским, которого неоднократно подставлял собственный напарник. Его выгнали из войск, отвергли и забыли близкие. Однако, когда влиятельный человек просит защитить свою дочь, только один человек берётся за дело. Ставки велики и многое теперь поставлено на кон.
Отныне только Ролланд способен вернуть в целости и сохранности дочь босса и противостоять не менее серьёзным людям, готовых уничтожить и смести всё на своём пути, дабы достать дочь заклятого врага. Война начинается…


Возраст: 16+ (зрителям, достигшим 16 лет)
Рейтинг MPAA: R (лицам до 17 лет обязательно присутствие взрослого)
Дата выхода DVD релиза: 18 марта 2010, «Союз-Видео»

Релиз от: R.G. Goldenshara

Продолжительность: 01:34:11
Качество видео: BDRip (1080p-LQ)
Перевод: Двухголосый закадровый, профессиональный (R5)

Видео: AVC/H.264, 1920x1036 (1.85:1), ~6196 kbps, 23.976 fps
Аудио: AC3, 6 ch, 48 kHz, 448 kbps, CBR

Mediainfo:


General
Unique ID : 179491011779955756930495945816490954416 (0x8708B6208222825E947B9A4F8890CEB0)
Complete name : E:\Мои рипы\Хранитель.2009.BDRip.1080p.DVO.mkv
Format : Matroska
Format version : Version 4 / Version 2
File size : 4.37 GiB
Duration : 1h 34mn
Overall bit rate : 6 646 Kbps
Movie name : The.Keeper.2009.1080p.Bluray.x264.Remux
Encoded date : UTC 2016-12-09 18:44:08
Writing application : mkvmerge v6.8.0 ('Theme for Great Cities') 32bit built on Mar 2 2014 21:27:07
Writing library : libebml v1.3.0 + libmatroska v1.4.1

Video
ID : 1
Format : AVC
Format/Info : Advanced Video Codec
Format profile : High@L4.1
Format settings, CABAC : Yes
Format settings, ReFrames : 4 frames
Codec ID : V_MPEG4/ISO/AVC
Duration : 1h 34mn
Bit rate : 6 196 Kbps
Width : 1 920 pixels
Height : 1 036 pixels
Display aspect ratio : 1.85:1
Frame rate mode : Constant
Frame rate : 23.976 fps
Color space : YUV
Chroma subsampling : 4:2:0
Bit depth : 8 bits
Scan type : Progressive
Bits/(Pixel*Frame) : 0.130
Stream size : 3.99 GiB (91%)
Writing library : x264 core 146 r2538 121396c
Encoding settings : cabac=1 / ref=4 / deblock=1:-3:-3 / analyse=0x3:0x113 / me=umh / subme=11 / psy=1 / psy_rd=1.00:0.15 / mixed_ref=1 / me_range=48 / chroma_me=1 / trellis=2 / 8x8dct=1 / cqm=0 / deadzone=21,11 / fast_pskip=0 / chroma_qp_offset=-4 / threads=6 / lookahead_threads=1 / sliced_threads=0 / nr=0 / decimate=1 / interlaced=0 / bluray_compat=0 / constrained_intra=0 / bframes=8 / b_pyramid=2 / b_adapt=2 / b_bias=0 / direct=2 / weightb=1 / open_gop=0 / weightp=2 / keyint=250 / keyint_min=23 / scenecut=40 / intra_refresh=0 / rc_lookahead=50 / rc=2pass / mbtree=0 / bitrate=6196 / ratetol=1.0 / qcomp=0.60 / qpmin=0 / qpmax=69 / qpstep=4 / cplxblur=20.0 / qblur=0.5 / vbv_maxrate=14000 / vbv_bufsize=14000 / nal_hrd=none / filler=0 / ip_ratio=1.40 / pb_ratio=1.30 / aq=2:1.00
Language : English
Default : Yes
Forced : No
Color primaries : Generic film
Matrix coefficients : YCgCo

Audio
ID : 2
Format : AC-3
Format/Info : Audio Coding 3
Mode extension : CM (complete main)
Format settings, Endianness : Big
Codec ID : A_AC3
Duration : 1h 34mn
Bit rate mode : Constant
Bit rate : 448 Kbps
Channel(s) : 6 channels
Channel positions : Front: L C R, Side: L R, LFE
Sampling rate : 48.0 KHz
Bit depth : 16 bits
Compression mode : Lossy
Stream size : 302 MiB (7%)
Title : R5
Language : Russian
Default : Yes
Forced : No
Скриншоты:


Все одноименные релизы в Клубе

Смотреть Online

http://moonwalk.cc/video/a66e071799204bc47ceb9e866ebf39ba/iframe
Детали торрента:
Название:Хранитель / The Keeper (2009) BDRip [H.264/1080p-LQ]
Дата добавления:10 Дек 2016 00:49:41
Размер:4,37 GB
Раздают:
Качают:0
Форум:Зарубежные Фильмы (HD*Rip/LQ, DVDRip, SATRip, VHSRip)

All rights reserved © 2015-2018