TORRENTS43.COM

Скачать Монтана / Montana (1950) DVDRip [H.264]


Монтана / Montana (1950) DVDRip [H.264]
Производство: США / Warner Bros. Pictures
Жанр: Боевик, Мелодрама, Приключения, Вестерн

Режиссер: Рэй Энрайт, Рауль Уолш
Актеры: Эррол Флинн, Алексис Смит, Ш.З. Шакалль, Дуглас Кеннеди, Джеймс Браун, Йен МакДональд, Чарльз Ирвин, Пол Э. Барнс, Тудор Оуэн, Лестер Мэтьюз

Описание:
Он — непритязательный пастух овец Морган Лэйн, прибывший из Австралии в США и решивший попытать счастья в Новом Свете. Она — Баронесса Мария Синглетон, владелица огромного стада рогатого скота в самом плодородном штата Америки — Монтана. Среди бескрайних пастбищ им суждено испытать ненависть и любовь.
Ковбои не любят овцеводов, считая, что овцы вытаптывают их поля, уничтожают траву, к тому же есть подозрение, что владельцы овец не соблюдают конвенцию, нарушая границы пастбищ. Доказать что это не так решает герой этой картины, вступая в спор за землю, которая принадлежит ему по праву собственности. Благодаря крепким кулакам и меткой стрельбе из винчестера, ему удается отстоять свою землю.


Возраст: 0+ (для любой зрительской аудитории)

Релиз от: Охрана (Torrents43.com)
Продолжительность: 01:16:26
Качество видео: DVDRip
Перевод: Авторский (С. Визгунов)
Язык субтитров: Английский
Вид субтитров: Вшитые отключаемые

Видео: AVC/H.264, 720x544, ~1665 Kbps
Аудио 1: AC3, 2 ch, 192 Kbps, 48.0 kHz Русский
Аудио 2: AC3, 1 ch, 192 Kbps, 48.0 kHz Английский

Mediainfo:


General
Unique ID : 218583256440784927344011589373808665000 (0xA4719A98AC2C020EA6C49F7540C8E1A8)
Complete name : F:\Downloads\Монтана. 1950. torrents43.comv
Format : Matroska
Format version : Version 4 / Version 2
File size : 1.10 GiB
Duration : 1h 16mn
Overall bit rate : 2 051 Kbps
Encoded date : UTC 2016-12-23 09:14:09
Writing application : mkvmerge v7.0.0 ('Where We Going') 32bit built on Jun 9 2014 15:08:34
Writing library : libebml v1.3.0 + libmatroska v1.4.1
DURATION : 01:14:51.357000000
NUMBER_OF_FRAMES : 943
NUMBER_OF_BYTES : 39108
_STATISTICS_WRITING_APP : mkvmerge v7.0.0 ('Where We Going') 32bit built on Jun 9 2014 15:08:34
_STATISTICS_WRITING_DATE_UTC : 2016-12-23 09:14:09
_STATISTICS_TAGS : BPS DURATION NUMBER_OF_FRAMES NUMBER_OF_BYTES

Video
ID : 1
Format : AVC
Format/Info : Advanced Video Codec
Format profile : High@L3.1
Format settings, CABAC : Yes
Format settings, ReFrames : 8 frames
Codec ID : V_MPEG4/ISO/AVC
Duration : 1h 16mn
Bit rate : 1 665 Kbps
Width : 720 pixels
Height : 544 pixels
Display aspect ratio : 4:3
Frame rate mode : Constant
Frame rate : 23.976 fps
Color space : YUV
Chroma subsampling : 4:2:0
Bit depth : 8 bits
Scan type : Progressive
Bits/(Pixel*Frame) : 0.177
Stream size : 889 MiB (79%)
Title : Montana
Writing library : x264 core 125 r2208 d9d2288
Encoding settings : cabac=1 / ref=8 / deblock=1:-1:-1 / analyse=0x3:0x133 / me=umh / subme=9 / psy=1 / psy_rd=1.00:0.10 / mixed_ref=1 / me_range=32 / chroma_me=1 / trellis=2 / 8x8dct=1 / cqm=0 / deadzone=21,11 / fast_pskip=0 / chroma_qp_offset=-3 / threads=6 / lookahead_threads=1 / sliced_threads=0 / nr=0 / decimate=1 / interlaced=0 / bluray_compat=0 / constrained_intra=0 / bframes=3 / b_pyramid=2 / b_adapt=2 / b_bias=0 / direct=3 / weightb=1 / open_gop=0 / weightp=2 / keyint=250 / keyint_min=25 / scenecut=40 / intra_refresh=0 / rc_lookahead=60 / rc=2pass / mbtree=1 / bitrate=1665 / ratetol=1.0 / qcomp=0.60 / qpmin=0 / qpmax=69 / qpstep=4 / cplxblur=20.0 / qblur=0.5 / ip_ratio=1.40 / aq=1:1.00
Language : English
Default : Yes
Forced : No

Audio #1
ID : 2
Format : AC-3
Format/Info : Audio Coding 3
Mode extension : CM (complete main)
Format settings, Endianness : Big
Codec ID : A_AC3
Duration : 1h 16mn
Bit rate mode : Constant
Bit rate : 192 Kbps
Channel(s) : 2 channels
Channel positions : Front: L R
Sampling rate : 48.0 KHz
Bit depth : 16 bits
Compression mode : Lossy
Stream size : 105 MiB (9%)
Title : Авторский, С. Визгунов
Language : Russian
Default : Yes
Forced : No

Audio #2
ID : 3
Format : AC-3
Format/Info : Audio Coding 3
Mode extension : CM (complete main)
Format settings, Endianness : Big
Codec ID : A_AC3
Duration : 1h 16mn
Bit rate mode : Constant
Bit rate : 192 Kbps
Channel(s) : 1 channel
Channel positions : Front: C
Sampling rate : 48.0 KHz
Bit depth : 16 bits
Compression mode : Lossy
Delay relative to video : 23ms
Stream size : 105 MiB (9%)
Title : Оригинал
Language : English
Default : No
Forced : No

Text
ID : 4
Format : UTF-8
Codec ID : S_TEXT/UTF8
Codec ID/Info : UTF-8 Plain Text
Title : SRT
Language : English
Default : No
Forced : No
Скриншоты:

Дополнительные скриншоты:



Все одноименные релизы в Клубе

Смотреть Online

http://moonwalk.cc/video/3aa2dbf7a23cd735/iframe
Детали торрента:
Название:Монтана / Montana (1950) DVDRip [H.264]
Дата добавления:25 Дек 2016 10:40:47
Размер:1,1 GB
Раздают:
Качают:0
Форум:Зарубежная Классика (HD*Rip/LQ, DVDRip, SATRip, VHSRip)

All rights reserved © 2015-2018