TORRENTS43.COM

Скачать Козерог один / Capricorn One (1977) BDRip [H.264]


Козерог один / Capricorn One (1977) BDRip [H.264]
Производство: США, Великобритания / Associated General Films, Incorporated Television Company (ITC)
Жанр: Фантастика, Боевик, Триллер

Режиссер: Питер Хайамс
Актеры: Эллиотт Гулд, Джеймс Бролин, Бренда Ваккаро, Сэм Уотерстон, О. Дж. Симпсон, Хэл Холбрук, Карен Блэк, Телли Савалас, Дэвид Хаддлстон, Дэвид Дойл

Описание:
Полёт американских астронавтов на Марс может сорваться в связи с проблемами систем жизнеобеспечения корабля. Но, стремясь сохранить политический имидж Америки, руководство не хочет отказываться от проекта. Мир должен думать, что полёт состоялся, и ради этого замышляется грандиозный обман. Корабль «Козерог один» стартует без экипажа, а астронавты на земле инсценируют приземление на Марс. Спектакль продолжается, пока один из служащих НАСА не обнаруживает, что часть получаемых сигналов идёт с земли.


Возраст: 12+ (зрителям, достигшим 12 лет)
Рейтинг MPAA: PG (рекомендуется присутствие родителей)

Релиз от: Охрана (Torrents43.com)
Продолжительность: 02:03:10
Качество видео: BDRip
Перевод: Многоголосый, двуголосый закадровый
Язык субтитров: Русский, английский
Вид субтитров: Вшитые отключаемые

Видео: AVC/H.264, 1024x432, ~2450 Kbps
Аудио 1: Русский, AC3, 6 ch, 448 Kbps, 48.0 kHz (MVO)
Аудио 2: Русский, AC3, 2 ch, 192 Kbps, 48.0 kHz (DVO)
Аудио 3: Английский, AC3, 2 ch, 192 Kbps, 48.0 kHz (Оригинал)

Mediainfo:


General
Unique ID : 182825720850920617717430700639584452379 (0x898AF3FA5EC95C52A0A68AA76DAAFF1B)
Complete name : F:\Downloads\Козерог один. 1977. torrents43.comv
Format : Matroska
Format version : Version 4 / Version 2
File size : 2.83 GiB
Duration : 2h 3mn
Overall bit rate : 3 284 Kbps
Encoded date : UTC 2016-12-26 22:35:03
Writing application : mkvmerge v7.0.0 ('Where We Going') 32bit built on Jun 9 2014 15:08:34
Writing library : libebml v1.3.0 + libmatroska v1.4.1
_STATISTICS_WRITING_APP : mkvmerge v7.0.0 ('Where We Going') 32bit built on Jun 9 2014 15:08:34
_STATISTICS_WRITING_DATE_UTC : 2016-12-26 22:35:03
_STATISTICS_TAGS : BPS DURATION NUMBER_OF_FRAMES NUMBER_OF_BYTES
DURATION : 02:03:10.240000000
NUMBER_OF_FRAMES : 230945
NUMBER_OF_BYTES : 177365760

Video
ID : 1
Format : AVC
Format/Info : Advanced Video Codec
Format profile : High@L4.1
Format settings, CABAC : Yes
Format settings, ReFrames : 8 frames
Codec ID : V_MPEG4/ISO/AVC
Duration : 2h 3mn
Bit rate : 2 450 Kbps
Width : 1 024 pixels
Height : 432 pixels
Display aspect ratio : 2.40:1
Frame rate mode : Constant
Frame rate : 24.000 fps
Color space : YUV
Chroma subsampling : 4:2:0
Bit depth : 8 bits
Scan type : Progressive
Bits/(Pixel*Frame) : 0.231
Stream size : 2.05 GiB (73%)
Title : Capricorn One
Writing library : x264 core 125 r2208 d9d2288
Encoding settings : cabac=1 / ref=8 / deblock=1:-1:-1 / analyse=0x3:0x133 / me=umh / subme=9 / psy=1 / psy_rd=1.00:0.10 / mixed_ref=1 / me_range=32 / chroma_me=1 / trellis=2 / 8x8dct=1 / cqm=0 / deadzone=21,11 / fast_pskip=0 / chroma_qp_offset=-3 / threads=6 / lookahead_threads=1 / sliced_threads=0 / nr=0 / decimate=1 / interlaced=0 / bluray_compat=0 / constrained_intra=0 / bframes=3 / b_pyramid=2 / b_adapt=2 / b_bias=0 / direct=3 / weightb=1 / open_gop=0 / weightp=2 / keyint=250 / keyint_min=25 / scenecut=40 / intra_refresh=0 / rc_lookahead=60 / rc=2pass / mbtree=1 / bitrate=2450 / ratetol=1.0 / qcomp=0.60 / qpmin=0 / qpmax=69 / qpstep=4 / cplxblur=20.0 / qblur=0.5 / ip_ratio=1.40 / aq=1:1.00
Language : English
Default : Yes
Forced : No

Audio #1
ID : 2
Format : AC-3
Format/Info : Audio Coding 3
Mode extension : CM (complete main)
Format settings, Endianness : Big
Codec ID : A_AC3
Duration : 2h 3mn
Bit rate mode : Constant
Bit rate : 448 Kbps
Channel(s) : 6 channels
Channel positions : Front: L C R, Side: L R, LFE
Sampling rate : 48.0 KHz
Bit depth : 16 bits
Compression mode : Lossy
Stream size : 395 MiB (14%)
Title : Многоголосый закадровый
Language : Russian
Default : Yes
Forced : No

Audio #2
ID : 3
Format : AC-3
Format/Info : Audio Coding 3
Mode extension : CM (complete main)
Format settings, Endianness : Big
Codec ID : A_AC3
Duration : 2h 3mn
Bit rate mode : Constant
Bit rate : 192 Kbps
Channel(s) : 2 channels
Channel positions : Front: L R
Sampling rate : 48.0 KHz
Bit depth : 16 bits
Compression mode : Lossy
Stream size : 169 MiB (6%)
Title : Двуголосый закадровый
Language : Russian
Default : No
Forced : No

Audio #3
ID : 4
Format : AC-3
Format/Info : Audio Coding 3
Mode extension : CM (complete main)
Format settings, Endianness : Big
Codec ID : A_AC3
Duration : 2h 3mn
Bit rate mode : Constant
Bit rate : 192 Kbps
Channel(s) : 2 channels
Channel positions : Front: L R
Sampling rate : 48.0 KHz
Bit depth : 16 bits
Compression mode : Lossy
Stream size : 169 MiB (6%)
Title : Оригинал
Language : English
Default : No
Forced : No

Text #1
ID : 5
Format : UTF-8
Codec ID : S_TEXT/UTF8
Codec ID/Info : UTF-8 Plain Text
Title : SRT 1
Language : Russian
Default : No
Forced : No

Text #2
ID : 6
Format : UTF-8
Codec ID : S_TEXT/UTF8
Codec ID/Info : UTF-8 Plain Text
Title : SRT 2
Language : Russian
Default : No
Forced : No

Text #3
ID : 7
Format : UTF-8
Codec ID : S_TEXT/UTF8
Codec ID/Info : UTF-8 Plain Text
Title : SRT
Language : English
Default : No
Forced : No
Скриншоты:

Дополнительные скриншоты:



Все одноименные релизы в Клубе

Смотреть Online

http://moonwalk.cc/video/e52becd644f3d385/iframe
Детали торрента:
Название:Козерог один / Capricorn One (1977) BDRip [H.264]
Дата добавления:28 Дек 2016 16:22:39
Размер:2,83 GB
Раздают:3
Качают:0
Форум:Зарубежная Классика (HD*Rip/LQ, DVDRip, SATRip, VHSRip)

All rights reserved © 2015-2018