TORRENTS43.COM

Скачать Страсть к ароматам. Подлинная история парфюма / Passion for Scent The True Story of Perfume (2014) SATRip


Страсть к ароматам. Подлинная история парфюма / Passion for Scent The True Story of Perfume (2014) SATRip
Телекомпания: Германия, Франция, City Media TV, ZDF, Arte
Жанр: Документальный

Режиссер: Инна Кноблош

Описание:
На протяжении всей истории человечества парфюмерия играла огромную роль в жизни человека, который с древних времен стремился выглядеть лучше. История парфюмерии уходит вглубь веков. Древние люди приписывали ароматам божественную и магическую силу. Например, цветущей веткой персика шаманы изгоняли из человека духов болезни и зла. А по свидетельству Геротода, благовонным можжевельником окуривали дом и постройки, чтобы предохранить их от удара молнии.
Что общего у создателя одеколона Джованни Марии Фарины, законодательницы мод Коко Шанель и Жан-Батиста Гренуя, героя всемирно известного романа Патрика Зюскинда "Парфюмер"? Ответ: все они были одержимы ароматами. Красочный документальный фильм "Страсть к ароматам : Подлинная история парфюмера" рассказывает о том, как люди использовали духи в разные времена, а также о том, стали ли Фарина и Коко Шанель объединенным прообразом мрачного парфюмера из произведения Зюскинда.

Продолжительность: 00:52:45
Качество видео: SATRip
Перевод: Одноголосый закадровый, профессиональный

Видео: Xvid, 720x400, ~1799 kbps
Аудио: AC3, 2 ch, 192 kbps, CBR

Mediainfo:


Общее
Полное имя : F:\КИНО\Подлинная история парфюма.avi
Формат : AVI
Формат/Информация : Audio Video Interleave
Размер файла : 755 Мбайт
Продолжительность : 52 м. 44 с.
Общий поток : 2001 Кбит/сек
Программа кодирования : VirtualDubMod 1.5.10.3 | www.virtualdub-fr.org || (build 2550/release)
Библиотека кодирования : VirtualDubMod build 2550/release

Видео
Идентификатор : 0
Формат : MPEG-4 Visual
Профиль формата : Advanced Simple@L5
Параметр BVOP формата : 2
Параметр QPel формата : Нет
Параметр GMC формата : Без точки перехода
Параметр матрицы формата : Default (H.263)
Режим смешивания : Сжатый битовый поток
Идентификатор кодека : XVID
Идентификатор кодека/Подсказка : XviD
Продолжительность : 52 м. 44 с.
Битрейт : 1800 Кбит/сек
Ширина : 720 пикселей
Высота : 400 пикселей
Соотношение сторон : 16:9
Частота кадров : 25,000 кадров/сек
Цветовое пространство : YUV
Субдискретизация насыщенности : 4:2:0
Битовая глубина : 8 бит
Тип развёртки : Прогрессивная
Метод сжатия : С потерями
Бит/(Пиксели*Кадры) : 0.250
Размер потока : 679 Мбайт (90%)
Библиотека кодирования : XviD 1.2.1 (UTC 2008-12-04)

Аудио
Идентификатор : 1
Формат : AC-3
Формат/Информация : Audio Coding 3
Расширение режима : CM (complete main)
Параметр Endianness формата : Big
Идентификатор кодека : 2000
Продолжительность : 52 м. 44 с.
Вид битрейта : Постоянный
Битрейт : 192 Кбит/сек
Каналы : 2 канала
Расположение каналов : Front: L R
Частота : 48,0 КГц
Частота кадров : 31,250 кадров/сек (1536 spf)
Битовая глубина : 16 бит
Метод сжатия : С потерями
Размер потока : 72,4 Мбайт (10%)
Выравнивание : Разделение по промежуткам
Продолжительность промежутка : 40 мс. (1,00 видеокадр)
Время предзагрузки промежутка : 500 мс.
Скриншоты:

Дополнительные скриншоты:




Детали торрента:
Название:Страсть к ароматам. Подлинная история парфюма / Passion for Scent The True Story of Perfume (2014) SATRip
Дата добавления:31 Дек 2016 19:45:17
Размер:755 MB
Раздают:1
Качают:0
Форум:Интересно обо всем

All rights reserved © 2015-2018