TORRENTS43.COM

Скачать Братья по крови / Blodsbroder / Bloodbrothers (2005) DVDRip [SW]


Братья по крови / Blodsbroder / Bloodbrothers (2005) DVDRip [SW]
Производство: Швеция, Public Art Entertainment, Scanbox Entertainment, Svenska Filminstitutet (SFI)
Жанр: Драма, Криминал

Режиссер: Дэниэл Фриделль
Актеры: Нуми Рапас, Лайам Норберг, София Хелин, Матс Хелин, Рейне Бринолфссон, Стина Экблад, Кен Ринг, Торстен Флинк, Кеве Эльм, Валерио Амико, Лейф Андре

Описание:
30-летний Джон наконец освобожден после семи лет тюрьмы. Он решает оставить преступную деятельность и начать новую жизнь.


Возраст: этот продукт не был классифицирован
Рейтинг MPAA: этот продукт не был классифицирован

Продолжительность: 01:27:09
Качество видео: DVDRip
Перевод: Отсутствует
Язык озвучки: Шведский

Видео: Xvid, 576x336, ~957 kbps
Аудио: MP3, 2 ch, 158 kbps, VBR

Mediainfo:


General
Complete name : D:\Blodsbröder (2005).avi
Format : AVI
Format/Info : Audio Video Interleave
Format profile : OpenDML
Format settings : rec
File size : 700 MiB
Duration : 1h 27mn
Overall bit rate mode : Variable
Overall bit rate : 1 123 Kbps
Writing application : AVI-Mux GUI 1.17.4.3, Nov 14 2005 20:11:25

Video
ID : 0
Format : MPEG-4 Visual
Format profile : Advanced Simple@L5
Format settings, BVOP : 2
Format settings, QPel : No
Format settings, GMC : No warppoints
Format settings, Matrix : Default (H.263)
Muxing mode : Packed bitstream
Codec ID : XVID
Codec ID/Hint : XviD
Duration : 1h 27mn
Bit rate : 957 Kbps
Width : 576 pixels
Height : 336 pixels
Display aspect ratio : 1.714
Frame rate : 25.000 fps
Color space : YUV
Chroma subsampling : 4:2:0
Bit depth : 8 bits
Scan type : Progressive
Compression mode : Lossy
Bits/(Pixel*Frame) : 0.198
Stream size : 596 MiB (85%)
Writing library : XviD 1.1.0 (UTC 2005-11-22)

Audio
ID : 1
Format : MPEG Audio
Format version : Version 1
Format profile : Layer 3
Mode : Joint stereo
Mode extension : MS Stereo
Codec ID : 55
Codec ID/Hint : MP3
Duration : 1h 27mn
Bit rate mode : Variable
Bit rate : 158 Kbps
Minimum bit rate : 128 Kbps
Channel(s) : 2 channels
Sampling rate : 48.0 KHz
Compression mode : Lossy
Stream size : 98.2 MiB (14%)
Alignment : Aligned on interleaves
Interleave, duration : 24 ms (0.60 video frame)
Interleave, preload duration : 545 ms
Title : bb
Writing library : LAME3.90.
Encoding settings : -m j -V 1 -q 2 -lowpass 19.6 --vbr-new -b 128-m j -V 1 -q 2 -lowpass 19.6 --vbr-new -b 128-m j -V 1 -q 2 -lowpass 19.6 --vbr-new -b 128
Скриншоты:


Все одноименные релизы в Клубе

Смотреть Online

http://moonwalk.cc/video/f3e8c86733750921/iframe
Детали торрента:
Название:Братья по крови / Blodsbroder / Bloodbrothers (2005) DVDRip [SW]
Дата добавления:03 Янв 2017 20:15:36
Размер:700 MB
Раздают:
Качают:0
Форум:Фильмы в оригинале

All rights reserved © 2015-2018