TORRENTS43.COM

Скачать Титаник. Рождение легенды / Titanic. Birth of a Legend (2005) SATRip [H.264]


Титаник. Рождение легенды / Titanic. Birth of a Legend (2005) SATRip [H.264]
Телекомпания: ITV (Великобритания), эфир телеканал "Культура"
Жанр: Документальный, игровые сцены
Режиссер: Вильям Лайенс

Описание:
Всем известна ужасная трагедия, произошедшая с легендарным "Титаником". Тогда в далеком 1912 году крушение этого гиганта унесло жизни полутора тысяч человек. Однако не все знают историю возникновения "Титаника". Фильм начинает повествование за три года до спуска "Титаника" на воду. Но кто и как решил воплотить в жизнь самый грандиозный проект в истории кораблестроения прошлого века?

Продолжительность: 01:14:59
Качество видео: SATRip
Перевод: Двуголосый закадровый, профессиональный

Видео: AVC/H.264, 704x448, ~1 024 Kbps
Аудио: MP3, 2 ch, 128 Kbps

Mediainfo:


General

Format : AVI
Format/Info : Audio Video Interleave
File size : 628 MiB
Duration : 1h 14mn
Overall bit rate : 1 171 Kbps
Writing application : Lavf56.40.101

Video
ID : 0
Format : AVC
Format/Info : Advanced Video Codec
Format profile : High@L3.0
Format settings, CABAC : Yes
Format settings, ReFrames : 2 frames
Codec ID : H264
Duration : 1h 14mn
Bit rate : 1 024 Kbps
Width : 704 pixels
Height : 448 pixels
Display aspect ratio : 16:10
Frame rate mode : Variable
Frame rate : 25.000 fps
Color space : YUV
Chroma subsampling : 4:2:0
Bit depth : 8 bits
Scan type : Progressive
Bits/(Pixel*Frame) : 0.130
Stream size : 553 MiB (88%)
Writing library : x264 core 148 r2643 5c65704
Encoding settings : cabac=1 / ref=2 / deblock=1:0:0 / analyse=0x3:0x113 / me=hex / subme=7 / psy=1 / psy_rd=1.00:0.00 / mixed_ref=1 / me_range=16 / chroma_me=0 / trellis=1 / 8x8dct=1 / cqm=0 / deadzone=21,11 / fast_pskip=1 / chroma_qp_offset=-2 / threads=6 / lookahead_threads=1 / sliced_threads=0 / nr=0 / decimate=1 / interlaced=0 / bluray_compat=0 / constrained_intra=0 / bframes=3 / b_pyramid=0 / b_adapt=1 / b_bias=0 / direct=1 / weightb=1 / open_gop=0 / weightp=2 / keyint=250 / keyint_min=25 / scenecut=40 / intra_refresh=0 / rc_lookahead=40 / rc=abr / mbtree=1 / bitrate=1024 / ratetol=1.0 / qcomp=0.60 / qpmin=10 / qpmax=51 / qpstep=4 / ip_ratio=1.41 / aq=1:1.00

Audio
ID : 1
Format : MPEG Audio
Format version : Version 1
Format profile : Layer 3
Mode : Joint stereo
Mode extension : MS Stereo
Codec ID : 55
Codec ID/Hint : MP3
Duration : 1h 14mn
Bit rate mode : Constant
Bit rate : 128 Kbps
Channel(s) : 2 channels
Sampling rate : 44.1 KHz
Compression mode : Lossy
Stream size : 68.6 MiB (11%)
Alignment : Aligned on interleaves
Interleave, duration : 26 ms (0.65 video frame)
Interleave, preload duratio : 26 ms
Скриншоты:



Детали торрента:
Название:Титаник. Рождение легенды / Titanic. Birth of a Legend (2005) SATRip [H.264]
Дата добавления:10 Янв 2017 14:51:39
Размер:628 MB
Раздают:1
Качают:0
Форум:История

All rights reserved © 2015-2018