TORRENTS43.COM

Скачать Молчание / Silence (2016) DVDScr [EN]


Молчание / Silence (2016) DVDScr [EN]
Производство: Мексика, Тайвань, США / Cappa Defina Productions, Emmett/Furla/Oasis Films (EFO Films), Fbrica de Cine, SharpSword Films, Sikelia Productions, Verdi Productions, Waypoint Entertainment
Жанр: Драма, История

Режиссер: Мартин Скорсезе
Актеры: Эндрю Гарфилд, Адам Драйвер, Лиам Нисон, Таданобу Асано, Киран Хайндс, Иссэй Огата, Синья Цукамото, Ёси Оида, Ёскэ Кубодзука, Каору Эндо ...

Описание:
В XVII веке два священника-иезуита подвергаются насилию и преследованиям во время странствия по Японии, куда они приехали с целью найти своего наставника и распространять христианское Евангелие.


Возраст: 18+ (зрителям, достигшим 18 лет. запрещено для детей)
Рейтинг MPAA: R (лицам до 17 лет обязательно присутствие взрослого)
Премьера (мир): 29 ноября 2016, ...
Премьера (РФ): 26 января 2017, «Централ Партнершип»


Продолжительность: 02:41:05
Качество видео: DVDScr
Перевод: Отсутствует
Язык озвучки: Английский
Субтитры: Отсутствуют

Видео: MPEG4, XviD, 720x304 (2.35:1), 29.970 fps, 1 704 Kbps (0.260 bit/pixel)
Аудио: AC-3, 48.0 KHz, 2 ch, 256 Kbps, CBR (English)

Mediainfo:


General
Complete name : I:\Silence.2016.DVDScr.XVID.AC3.HQ.avi
Format : AVI
Format/Info : Audio Video Interleave
Format profile : OpenDML
Format settings : rec
File size : 2.21 GiB
Duration : 2 h 41 min
Overall bit rate : 1 966 kb/s
Writing application : AVI-Mux GUI 1.17.7, Aug 8 2006 20:59:17

Video
ID : 0
Format : MPEG-4 Visual
Format profile : Advanced Simple@L5
Format settings, BVOP : 2
Format settings, QPel : Yes
Format settings, GMC : No warppoints
Format settings, Matrix : Default (H.263)
Muxing mode : Packed bitstream
Codec ID : XVID
Codec ID/Hint : XviD
Duration : 2 h 41 min
Bit rate : 1 704 kb/s
Width : 720 pixels
Height : 304 pixels
Display aspect ratio : 2.35:1
Frame rate : 29.970 (30000/1001) FPS
Color space : YUV
Chroma subsampling : 4:2:0
Bit depth : 8 bits
Scan type : Progressive
Compression mode : Lossy
Bits/(Pixel*Frame) : 0.260
Stream size : 1.92 GiB (87%)
Writing library : XviD 1.2.1 (UTC 2008-12-04)

Audio
ID : 1
Format : AC-3
Format/Info : Audio Coding 3
Mode extension : CM (complete main)
Format settings, Endianness : Big
Codec ID : 2000
Duration : 2 h 41 min
Bit rate mode : Constant
Bit rate : 256 kb/s
Channel(s) : 2 channels
Channel positions : Front: L R
Sampling rate : 48.0 kHz
Frame rate : 31.250 FPS (1536 spf)
Compression mode : Lossy
Stream size : 295 MiB (13%)
Alignment : Aligned on interleaves
Interleave, duration : 64 ms (1.92 video frames)
Interleave, preload duratio : 192 ms
Title : Silence_fix

Знаете ли вы, что...

Изначально на три роли первого плана были заявлены Дэниэл Дэй-Льюис на роль отца Феррейры, Гаэль Гарсиа Берналь на роль отца Родригеса и Бенисио Дель Торо на роль отца Франциско Гаррпе. Все трое выбыли из проекта из-за постоянных задержек производства картины.

Мартин Скорсезе и сценарист Джей Кокс написали первый вариант сценария еще в 1990-ые годы с намерением его экранизировать после «Банд Нью-Йорка» (2002). Однако Скорсезе не удалось найти спонсора для этого проекта, и он взялся за «Авиатора» (2004).

Изначально на роль японского переводчика священников-иезуитов был намечен Кен Ватанабе, но он покинул проект до начала съемок, и роль перешла японскому актеру Таданобу Асано.

После картин «Хранитель времени» (2011) и «Волк с Уолл-стрит» (2013), в которых Мартин Скорсезе щедро использовал «цифру», это первый фильм со времен «Острова проклятых» (2009), который режиссер полностью снял на 35-мм пленку.

По словам автора Сюсаку Эндо в качестве вдохновения при написании романа он использовал картину Федерико Феллини «Дорога» (1954).

Это третий фильм Мартина Скорсезе на религиозную тему после картин «Последнее искушение Христа» (1988) и «Кундун» (1997).

В Риме был проведен специальный показ фильма для четырехсот священников-иезуитов.

Лиам Нисон уже играл роль священника-иезуита в картине «Миссия» (1986), сюжет которой также разворачивается в XVII веке.

Это второй совместный проект Мартина Скорсезе и Лиама Нисона после «Банд Нью-Йорка» (2002).

Первое участие Мартина Скорсезе в проекте в качестве сценариста со времен «Казино» (1995).

По словам продюсера Эммы Тиллинджер из-за неблагоприятной погоды и ограниченного бюджета съемки картины оказались для нее и Скорсезе самыми изнурительными и суровыми за всю их карьеру.

В октябре 2016 года продюсер Ирвин Уинклер заявил, что, на его взгляд, это лучший фильм Мартина Скорсезе. Уинклер спродюсировал такие картины режиссера как «Нью-Йорк, Нью-Йорк» (1977), «Бешеный бык» (1980) и «Славные парни» (1990), а также выступил исполнительным продюсером «Волка с Уолл-cтрит» (2013).

Лиам Нисон и Адам Драйвер оба появлялись в киновселенной «Звездных войн»: Нисон в роли Квай-Гона Джинна в первом эпизоде саги, а Драйвер в роли Кайло Рена в седьмом.

Таданобу Асано и Синья Цукамото уже работали вместе в сверхжестоком японском триллере «Ичи-киллер» (2001) режиссера Такаси Миике.

Дэниэл Дэй-Льюис и Лиам Нисон поменялись местами в проектах-долгостроях. Нисон был главным кандидатом на титульную роль в застрявшем на этапе разработки байопике «Линкольн» (2012), но когда актер покинул проект, его место занял Дэй-Льюис. По иронии судьбы в этом фильме Нисон сменил Дэй-Льюиса, который долгое время был прикреплен к проекту в роли отца Феррейры. В обеих картинах снялся Адам Драйвер.
Скриншоты:

Дополнительные скриншоты:



Все одноименные релизы в Клубе

Смотреть Online

http://moonwalk.cc/video/df134e9779f0be9a/iframe
Детали торрента:
Название:Молчание / Silence (2016) DVDScr [EN]
Дата добавления:23 Янв 2017 17:03:31
Размер:2,21 GB
Раздают:2
Качают:0
Форум:Фильмы в оригинале

All rights reserved © 2015-2018