TORRENTS43.COM

Скачать Голос монстра / A Monster Calls (2016) WEB-DL [H.264/720p-LQ]


Голос монстра / A Monster Calls (2016) WEB-DL [H.264/720p-LQ]
Производство: США, Испания, Apaches Entertainment, La Trini, Monster Calls, A, Participant Media, River Road Entertainment
Жанр: Фэнтези, Драма

Режиссер: Хуан Антонио Байона
Продюсер: Белен Атьенса, Альваро Аугустин, Жислен Баруа
Актеры: Льюис МакДугалл, Сигурни Уивер, Фелисити Джонс, Тоби Кеббелл, Бен Моор, Джеймс Мелвилл, Оливер Стир, Доминик Бойл, Дженнифер Лим, Макс Габбей

Описание:
История о мальчике Конноре и монстре из его снов. Когда Коннору особенно тяжело, происходит нечто невероятное — старое тисовое дерево за окном оживает и превращается в громадное чудовище. По ночам монстр рассказывает Коннору истории, которые помогут ему понять, что даже когда весь мир рушится, можно найти в себе силы и не отчаиваться.


Возраст: 12+ (зрителям, достигшим 12 лет)
Рейтинг MPAA: PG-13 (детям до 13 лет просмотр нежелателен)
Дата мировой премьеры: 9 сентября 2016
Дата российской премьеры: 2 февраля 2017, «Вольга»

Продолжительность: 01:48:21
Качество видео: WEB-DL
Перевод: Многоголосый закадровый, любительский (MUZOBOZ)
Вид субтитров: Отсутствуют
Реклама: Присутствуют текстовые вставки рекламы

Видео: AVC/H.264, 1280x532 (2.40:1), 4019 kbps
Аудио: 48 kHz, AC3 Dolby Digital, 2/0 (L,R) ch, ~384 kbps

Mediainfo:

Общее
Уникальный идентификатор : 197706996672831555157289931123396020188 (0x94BCFB85D25C35D28809C67CFF8D87DC)
Полное имя : D:\Голос.монстра.2016.WEB-DL.[720p].torrents43.comv
Формат : Matroska
Версия формата : Version 4 / Version 2
Размер файла : 3,33 Гбайт
Продолжительность : 1 ч. 48 м.
Режим общего битрейта : Переменный
Общий поток : 4404 Кбит/сек
Название фильма : Голос.монстра.2016.WEB-DL.[720p].torrents43.com />Дата кодирования : UTC 2017-01-27 15:31:32
Программа кодирования : mkvmerge v8.3.0 ('Over the Horizon') 64bit
Библиотека кодирования : libebml v1.3.1 + libmatroska v1.4.2

Видео
Идентификатор : 1
Формат : AVC
Формат/Информация : Advanced Video Codec
Профиль формата : High@L4.1
Параметр CABAC формата : Да
Параметр ReFrames формата : 12 кадров
Идентификатор кодека : V_MPEG4/ISO/AVC
Продолжительность : 1 ч. 48 м.
Вид битрейта : Переменный
Битрейт : 4019 Кбит/сек
Максимальный битрейт : 4500 Кбит/сек
Ширина : 1280 пикселей
Высота : 532 пикселя
Соотношение сторон : 2,40:1
Режим частоты кадров : Постоянный
Частота кадров : 23,976 (24000/1001) кадра/сек
Стандарт вещания : Component
Цветовое пространство : YUV
Субдискретизация насыщенности : 4:2:0
Битовая глубина : 8 бит
Тип развёртки : Прогрессивная
Бит/(Пиксели*Кадры) : 0.246
Размер потока : 3,04 Гбайт (91%)
Язык : English
Default : Да
Forced : Нет
Цветовой диапазон : Limited
Основные цвета : BT.709
Характеристики трансфера : BT.709
Коэффициенты матрицы : BT.709

Аудио
Идентификатор : 2
Формат : AC-3
Формат/Информация : Audio Coding 3
Расширение режима : CM (complete main)
Параметр Endianness формата : Big
Идентификатор кодека : A_AC3
Продолжительность : 1 ч. 48 м.
Вид битрейта : Постоянный
Битрейт : 384 Кбит/сек
Каналы : 2 канала
Расположение каналов : Front: L R
Частота : 48,0 КГц
Частота кадров : 31,250 кадров/сек (1536 spf)
Метод сжатия : С потерями
Задержка видео : 18 мс.
Размер потока : 298 Мбайт (9%)
Заголовок : MUZOBOZ
Язык : Russian
Default : Да
Forced : Да

Скриншоты:



Все одноименные релизы в Клубе

Смотреть Online

http://moonwalk.cc/video/535006f151a7cb2b/iframe
Детали торрента:
Название:Голос монстра / A Monster Calls (2016) WEB-DL [H.264/720p-LQ]
Дата добавления:27 Янв 2017 18:35:12
Размер:3,33 GB
Раздают:46
Качают:0
Форум:Зарубежные Фильмы (HD*Rip/LQ, DVDRip, SATRip, VHSRip)

All rights reserved © 2015-2018