TORRENTS43.COM

Скачать Добров в эфире (29.01.2017) SATRip


Добров в эфире (29.01.2017) SATRip
Телекомпания: РЕН-TV
Жанр: Телепередача

Описание:
В последний час уходящей недели известный российский журналист и политолог Андрей Добров расскажет о самом интересном в стране и в мире. Самые обсуждаемые события недели. Все, о чем говорили, спорили и писали. О том, что осталось за кадром. Как все было на самом деле. Неожиданные факты. Эксклюзивные съемки. Авторские репортажи. Главные ньюсмейкеры страны. Динамично. Ярко. Доступно.

Ведущий: Андрей Добров

Продолжительность: 00:55:03
Качество видео: SATRip

Видео: Xvid, 704x448 , ~1800 Кбит/сек
Аудио: MP3, 2 ch, 128 Кбит/сек, CBR

Mediainfo

Общее
Полное имя : F:\видео\фильмы\Добров в эфире\Добров в эфире (2017.01.29). SATRip.avi
Формат : AVI
Формат/Информация : Audio Video Interleave
Размер файла : 788 Мбайт
Продолжительность : 55 м. 3 с.
Общий поток : 2002 Кбит/сек
Программа кодирования : VirtualDubMod 1.5.10.3 | www.virtualdub-fr.org || (build 2550/release)
Библиотека кодирования : VirtualDubMod build 2550/release

Видео
Идентификатор : 0
Формат : MPEG-4 Visual
Профиль формата : Advanced Simple@L5
Параметр BVOP формата : 2
Параметр QPel формата : Нет
Параметр GMC формата : Без точки перехода
Параметр матрицы формата : Default (H.263)
Идентификатор кодека : XVID
Идентификатор кодека/Подсказка : XviD
Продолжительность : 55 м. 3 с.
Битрейт : 1800 Кбит/сек
Ширина : 704 пикселя
Высота : 448 пикселей
Соотношение сторон : 16:10
Частота кадров : 25,000 кадров/сек
Цветовое пространство : YUV
Субдискретизация насыщенности : 4:2:0
Битовая глубина : 8 бит
Тип развёртки : Прогрессивная
Метод сжатия : С потерями
Бит/(Пиксели*Кадры) : 0.228
Размер потока : 709 Мбайт (90%)
Библиотека кодирования : XviD 1.2.1 (UTC 2008-12-04)

Аудио
Идентификатор : 1
Формат : MPEG Audio
Версия формата : Version 1
Профиль формата : Layer 3
Режим : Joint stereo
Расширение режима : MS Stereo
Идентификатор кодека : 55
Идентификатор кодека/Подсказка : MP3
Продолжительность : 55 м. 3 с.
Вид битрейта : Постоянный
Битрейт : 192 Кбит/сек
Каналы : 2 канала
Частота : 48,0 КГц
Метод сжатия : С потерями
Размер потока : 75,6 Мбайт (10%)
Выравнивание : Соединение по промежуткам
Продолжительность промежутка : 40 мс. (1,00 видеокадр)
Время предзагрузки промежутка : 504 мс.
Библиотека кодирования : LAME3.99r
Настройки программы : -m j -V 4 -q 9 -lowpass 18.6 -b 192

Скриншоты:



Детали торрента:
Название:Добров в эфире (29.01.2017) SATRip
Дата добавления:29 Янв 2017 18:20:25
Размер:788 MB
Раздают:
Качают:0
Форум:Публицистика, политика и экономика

All rights reserved © 2015-2018