TORRENTS43.COM

Скачать Девятая жизнь Луи Дракса / The 9th Life of Louis Drax (2016) BDRip [H.264/720p]


Девятая жизнь Луи Дракса / The 9th Life of Louis Drax (2016) BDRip [H.264/720p]
Производство: Великобритания, Канада, США / Brightlight Pictures Inc., Fire Axe Pictures, Miramax Films
Жанр: Триллер, Детектив

Режиссер: Александр Ажа
Актеры: Джейми Дорнан, Эйден Лонгуорт, Сара Гадон, Майкл Адамуэйт, Аарон Пол, Бэкхам Скойе, Адам Абрамс, Молли Паркер, Терри Чен, Рэнди Линн

Описание:
Знаменитый психолог Аллан Паскаль пытается раскрыть тайны, которые хранит сознание 9-летнего Луи Дракса, впавшего в кому после таинственного несчастного случая. Влюбленный в мать мальчика доктор подозревает в случившемся отца. Но чем глубже он погружается в подсознание ребенка, тем сильнее размываются границы между мистикой и реальностью…


Возраст: 18+ (зрителям, достигшим 18 лет. запрещено для детей)
Рейтинг MPAA: R (лицам до 17 лет обязательно присутствие взрослого)
Дата мировой премьеры: 1 сентября 2016
Дата российской премьеры: 1 сентября 2016, «Парадиз»

Продолжительность: 01:48:12
Качество видео: BDRip 720p
Перевод: Дублированный (iTunes)
Язык субтитров: Английский
Вид субтитров: Вшитые отключаемые

Видео: AVC/H.264, 1280x536, ~4034 Kbps
Аудио: AC3, 6 ch, 384 Kbps - Русский
Аудио: DTS, 6 ch, 1509 Kbps - Английский

Mediainfo:


General
Unique ID : 205071889005927313353784060261234765423 (0x9A4768BFF21174E6BF7A530712E9EE6F)
Complete name : E:\9.zhizn.Lui.Drux(2016)BDRip.720p.mkv
Format : Matroska
Format version : Version 4 / Version 2
File size : 4.49 GiB
Duration : 1 h 48 min
Overall bit rate : 5 945 kb/s
Encoded date : UTC 2017-01-30 23:43:42
Writing application : mkvmerge v9.7.1 ('Pandemonium') 64bit
Writing library : libebml v1.3.4 + libmatroska v1.4.5

Video
ID : 1
Format : AVC
Format/Info : Advanced Video Codec
Format profile : High@L4.1
Format settings, CABAC : Yes
Format settings, ReFrames : 12 frames
Codec ID : V_MPEG4/ISO/AVC
Duration : 1 h 48 min
Bit rate : 4 034 kb/s
Width : 1 280 pixels
Height : 536 pixels
Display aspect ratio : 2.40:1
Frame rate mode : Constant
Frame rate : 23.976 (24000/1001) FPS
Color space : YUV
Chroma subsampling : 4:2:0
Bit depth : 8 bits
Scan type : Progressive
Bits/(Pixel*Frame) : 0.245
Stream size : 3.05 GiB (68%)
Writing library : x264 core 148 r2762M 90a61ec
Encoding settings : cabac=1 / ref=12 / deblock=1:-3:-3 / analyse=0x3:0x133 / me=umh / subme=11 / psy=1 / psy_rd=1.00:0.00 / mixed_ref=1 / me_range=48 / chroma_me=1 / trellis=2 / 8x8dct=1 / cqm=0 / deadzone=21,11 / fast_pskip=0 / chroma_qp_offset=-2 / threads=12 / lookahead_threads=3 / sliced_threads=0 / nr=0 / decimate=0 / interlaced=0 / bluray_compat=0 / constrained_intra=0 / bframes=10 / b_pyramid=2 / b_adapt=2 / b_bias=0 / direct=3 / weightb=1 / open_gop=0 / weightp=2 / keyint=230 / keyint_min=23 / scenecut=40 / intra_refresh=0 / rc=2pass / mbtree=0 / bitrate=4034 / ratetol=1.0 / qcomp=0.70 / qpmin=3 / qpmax=69 / qpstep=4 / cplxblur=20.0 / qblur=0.5 / ip_ratio=1.20 / pb_ratio=1.10 / aq=3:0.80
Default : Yes
Forced : No
Color range : Limited
Color primaries : BT.709
Transfer characteristics : BT.709
Matrix coefficients : BT.709

Audio #1
ID : 2
Format : AC-3
Format/Info : Audio Coding 3
Mode extension : CM (complete main)
Format settings, Endianness : Big
Codec ID : A_AC3
Duration : 1 h 48 min
Bit rate mode : Constant
Bit rate : 384 kb/s
Channel(s) : 6 channels
Channel positions : Front: L C R, Side: L R, LFE
Sampling rate : 48.0 kHz
Frame rate : 31.250 FPS (1536 spf)
Compression mode : Lossy
Stream size : 297 MiB (6%)
Title : iTunes
Language : Russian
Default : Yes
Forced : No

Audio #2
ID : 3
Format : DTS
Format/Info : Digital Theater Systems
Mode : 16
Format settings, Endianness : Big
Codec ID : A_DTS
Duration : 1 h 48 min
Bit rate mode : Constant
Bit rate : 1 509 kb/s
Channel(s) : 6 channels
Channel positions : Front: L C R, Side: L R, LFE
Sampling rate : 48.0 kHz
Frame rate : 93.750 FPS (512 spf)
Bit depth : 16 bits
Compression mode : Lossy
Stream size : 1.14 GiB (25%)
Language : English
Default : No
Forced : No

Text
ID : 4
Format : PGS
Muxing mode : zlib
Codec ID : S_HDMV/PGS
Codec ID/Info : Picture based subtitle format used on BDs/HD-DVDs
Duration : 1 h 47 min
Bit rate : 17.0 kb/s
Count of elements : 12416
Stream size : 13.0 MiB (0%)
Language : English
Default : No
Forced : No

Menu
00:00:00.000 : en:00:00:00.000
00:06:47.365 : en:00:06:47.365
00:12:14.817 : en:00:12:14.817
00:17:22.290 : en:00:17:22.290
00:22:47.656 : en:00:22:47.656
00:30:06.054 : en:00:30:06.054
00:37:27.661 : en:00:37:27.661
00:43:14.382 : en:00:43:14.382
00:48:41.293 : en:00:48:41.293
00:57:06.505 : en:00:57:06.505
01:02:41.046 : en:01:02:41.046
01:07:14.070 : en:01:07:14.070
01:14:28.255 : en:01:14:28.255
01:20:15.393 : en:01:20:15.393
01:25:10.395 : en:01:25:10.395
01:38:36.033 : en:01:38:36.033
Скриншоты:


Все одноименные релизы в Клубе

Смотреть Online

http://moonwalk.cc/video/d60682a3a41ecc2b/iframe
Детали торрента:
Название:Девятая жизнь Луи Дракса / The 9th Life of Louis Drax (2016) BDRip [H.264/720p]
Дата добавления:31 Янв 2017 02:58:25
Размер:4,49 GB
Раздают:4
Качают:0
Форум:Зарубежные Фильмы (HD, UHD-LQ)

All rights reserved © 2015-2018