TORRENTS43.COM

Скачать Раскрывая невидимую вселенную / Invisible Universe Revealed (2015) WEBRip


Раскрывая невидимую вселенную / Invisible Universe Revealed (2015) WEBRip
Телекомпания: США
Жанр: Документальный

Описание:
Фильм посвящен 25-летию космического телескопа Хаббл

Продолжительность: 00:53:30
Качество видео: WEBRip
Перевод: Одноголосый закадровый, профессиональный
Вид субтитров: Вшитые, отключаемые

Видео: AVC/H.264, 1152x648, ~2954 kbps
Аудио #1: Русский, AAC, 2 ch, 160kbps, CBR
Аудио #2: Английский, AAC, 2 ch, 128kbps, CBR

Mediainfo:


Общее
Уникальный идентификатор : 216666162003977354381316864264200945527 (0xA300628B070B84AA913922B737CA7F77)
Полное имя : F:\КИНО\Раскрывая невидимую вселенную.mkv
Формат : Matroska
Версия формата : Version 4 / Version 2
Размер файла : 1,22 Гбайт
Продолжительность : 53 м. 30 с.
Общий поток : 3257 Кбит/сек
Дата кодирования : UTC 2015-06-20 06:42:02
Программа кодирования : mkvmerge v8.0.0 ('Til The Day That I Die') 64bit
Библиотека кодирования : libebml v1.3.1 + libmatroska v1.4.2

Видео
Идентификатор : 1
Формат : AVC
Формат/Информация : Advanced Video Codec
Профиль формата : High@L3.1
Параметр CABAC формата : Да
Параметр ReFrames формата : 2 кадра
Идентификатор кодека : V_MPEG4/ISO/AVC
Продолжительность : 53 м. 30 с.
Битрейт : 2954 Кбит/сек
Ширина : 1152 пикселя
Высота : 648 пикселей
Соотношение сторон : 16:9
Режим частоты кадров : Постоянный
Частота кадров : 29,970 (30000/1001) кадров/сек
Цветовое пространство : YUV
Субдискретизация насыщенности : 4:2:0
Битовая глубина : 8 бит
Тип развёртки : Прогрессивная
Бит/(Пиксели*Кадры) : 0.132
Размер потока : 1,10 Гбайт (91%)
Библиотека кодирования : x264 core 129
Настройки программы : cabac=1 / ref=2 / deblock=1:0:0 / analyse=0x3:0x113 / me=hex / subme=6 / psy=1 / psy_rd=1.00:0.00 / mixed_ref=1 / me_range=16 / chroma_me=1 / trellis=0 / 8x8dct=1 / cqm=0 / deadzone=21,11 / fast_pskip=1 / chroma_qp_offset=-2 / threads=2 / lookahead_threads=1 / sliced_threads=0 / nr=0 / decimate=1 / interlaced=0 / bluray_compat=0 / constrained_intra=0 / bframes=0 / weightp=2 / keyint=250 / keyint_min=25 / scenecut=40 / intra_refresh=0 / rc_lookahead=40 / rc=2pass / mbtree=1 / bitrate=2954 / ratetol=1.0 / qcomp=0.60 / qpmin=10 / qpmax=51 / qpstep=4 / cplxblur=20.0 / qblur=0.5 / ip_ratio=1.41 / aq=1:1.00
Default : Да
Forced : Нет

Аудио #1
Идентификатор : 2
Формат : AAC
Формат/Информация : Advanced Audio Codec
Профиль формата : LC
Идентификатор кодека : A_AAC
Продолжительность : 53 м. 30 с.
Битрейт : 147 Кбит/сек
Каналы : 2 канала
Расположение каналов : Front: L R
Частота : 48,0 КГц
Частота кадров : 46,875 кадров/сек (1024 spf)
Метод сжатия : С потерями
Задержка видео : 9 мс.
Размер потока : 56,4 Мбайт (5%)
Заголовок : VO by Lord32x
Язык : Russian
Default : Да
Forced : Да

Аудио #2
Идентификатор : 3
Формат : AAC
Формат/Информация : Advanced Audio Codec
Профиль формата : LC
Идентификатор кодека : A_AAC
Продолжительность : 53 м. 30 с.
Битрейт : 152 Кбит/сек
Каналы : 2 канала
Расположение каналов : Front: L R
Частота : 44,1 КГц
Частота кадров : 43,066 кадра/сек (1024 spf)
Метод сжатия : С потерями
Размер потока : 58,2 Мбайт (5%)
Язык : English
Default : Нет
Forced : Нет

Текст
Идентификатор : 4
Формат : UTF-8
Идентификатор кодека : S_TEXT/UTF8
Идентификатор кодека/Информация : UTF-8 Plain Text
Продолжительность : 52 м. 19 с.
Битрейт : 183 бит/сек
Count of elements : 922
Размер потока : 70,2 Кбайт (0%)
Заголовок : Translated by Anna Spacedust
Язык : Russian
Default : Нет
Forced : Нет
Скриншоты:

Дополнительные скриншоты:



Детали торрента:
Название:Раскрывая невидимую вселенную / Invisible Universe Revealed (2015) WEBRip
Дата добавления:05 Фев 2017 09:29:04
Размер:1,22 GB
Раздают:
Качают:0
Форум:Космос

All rights reserved © 2015-2018