TORRENTS43.COM

Скачать Tenkuu Senki Shurato / Heaven Wars Shurato / Небесные войны Сюрато [1989, TV, 38 из 38] HDDVDRip 768p raw


天空戦記シュラト / Tenkuu Senki Shurato / Heaven Wars Shurato / Небесные войны Сюрато
Тип: TV
Жанр: приключения, фэнтези
Продолжительность: 38 эп. по 24 мин.
Количество серий: 38 из 38

Дата выпуска: c 06.04.1989 по 25.01.1990
Производство: Студия Tatsunoko / タツノコプロ
Автор оригинала: Михара Го
Режиссер: Нисикубо Мидзухо

Ссылки: World-Art ANN AniDB

Описание:
16-летний мальчик по имени Шурато и его друг Гай во время схватки в финальном матче турнира боевых искусств неожиданно попадают в гигантский шар света. Когда они приходят в себя, то обнаруживают, что оказались в мистической небесной сфере с божественной атмосферой. Вскоре выясняется, что Шурато раньше был королем этого мира и что сейчас он был приведен к исходному состоянию. Гай внезапно становится враждебным по отношению к Шурато. После этого неудачного инцидента захватывающая фантастическая драма начинается...

Язык озвучки: Японский
Субтитры: Русские, корейские
Перевод: Hurricane

Качество видео: HDDVDRip
Видео: AVC (High@L3.1), 1024x768 (4:3), ~23.976 fps, ~1660 kbps
Аудио: AC-3, 2 ch, 48 kHz, 16 bit, ~224 kbps

Скриншоты:

Эпизоды:

01. On Shura Sowaka
02. Big Consipiracy
03. Dragon King Ryouma's Challange
04. Explosive!? Awaken, Soma!
05. Feather, Show Me the Truth!
06. Love's Bitter Battle
07. Shortcut to Tentukai Demolish the Cave of Moonlight
08. Hurry! The path to Tenkuju
09. Shine! The Holy Light!
10. Gai's charge! Never ending battle!
11. Renge, the tragic warrior of love
12. Fierce Fight! See the friends in tears
13. My Hero
14. At the Limits of Love and Hatred
15. The Terrible Juuga Sanninshu
16. A Desperate Cry! Come Back, Lakshu!
17. A Sorceress! The Terror of the Red Flowers
18. Find the Lost Time!
19. A Tearful Resolution! Goodbye, Earth!
20. Stolen Techniques
21. Terror! The Combination Shakti
22. Ryouma's Final Attack
23. A Storm at Tenkuuden
24. Farewell, Raitei Indrah
25. A Sad Destiny! Shulato vs
26. A New Enemy, the Asura Army!
27. Find the Ultimate Shakti!
28. Dark Destiny! Gai Returns
29. Reiga's Desperate Counterattack
30. The Loneliness of the Chosen One
31. Burn! Sohma of Friendship
32. The Brahma Shakti is Discovered!
33. Good or Evil!? The Creation God Brahma's Choice
34. The Final Battle! The Fist of Hatred
35. The Future! Through the Deep Darkness
36. An Urgent Message! The Last Battle
37. Smash the Charm-water, the Shadow that Attacks Tenkuukai
38. Be Forever, ShuraOh

Состав серии

#1 Tenkuu Senki Shurato - ТВ (38 эп. + 2 эп.-коллажа), оригинальный сериал, 1989
#2 Tenkuu Senki Shurato: Sousei e no Antou - OVA (6 эп.), продолжение, 1991

Mediainfo:


Общее
Полное имя : Tenkuu Senki Shurato TV DVDRip\Shurato.TV.1989.DVDRip-Hi.x264.AC3.1024.EP01-nezumi.avi
Формат : AVI
Формат/Информация : Audio Video Interleave
Размер файла : 330 Мбайт
Продолжительность : 24 м. 22 с.
Общий поток : 1893 Кбит/сек
Программа кодирования : VirtualDubMod 1.5.10.2 (build 2542/release)
Библиотека кодирования : VirtualDubMod build 2542/release

Видео
Идентификатор : 0
Формат : AVC
Формат/Информация : Advanced Video Codec
Профиль формата : High@L3.1
Параметр CABAC формата : Да
Параметр ReFrames формата : 4 кадра
Идентификатор кодека : H264
Продолжительность : 24 м. 22 с.
Битрейт : 1660 Кбит/сек
Ширина : 1024 пикселя
Высота : 768 пикселей
Соотношение сторон : 4:3
Частота кадров : 23,976 (24000/1001) кадра/сек
Цветовое пространство : YUV
Субдискретизация насыщенности : 4:2:0
Битовая глубина : 8 бит
Тип развёртки : Прогрессивная
Бит/(Пиксели*Кадры) : 0.088
Размер потока : 290 Мбайт (88%)
Библиотека кодирования : x264 core 93 r1538bm bd72d46
Настройки программы : cabac=1 / ref=3 / deblock=1:1:2 / analyse=0x3:0x113 / me=umh / subme=6 / psy=1 / psy_rd=1.00:0.00 / mixed_ref=1 / me_range=16 / chroma_me=1 / trellis=0 / 8x8dct=1 / cqm=0 / deadzone=21,11 / fast_pskip=1 / chroma_qp_offset=-2 / threads=6 / sliced_threads=0 / nr=0 / decimate=1 / interlaced=0 / constrained_intra=0 / bframes=3 / b_pyramid=2 / b_adapt=2 / b_bias=0 / direct=1 / wpredb=1 / wpredp=2 / keyint=250 / keyint_min=25 / scenecut=40 / intra_refresh=0 / rc_lookahead=40 / rc=2pass / mbtree=1 / bitrate=1660 / ratetol=1.0 / qcomp=0.60 / qpmin=10 / qpmax=51 / qpstep=4 / cplxblur=20.0 / qblur=0.5 / ip_ratio=1.40 / aq=1:1.00

Аудио
Идентификатор : 1
Формат : AC-3
Формат/Информация : Audio Coding 3
Расширение режима : CM (complete main)
Параметр Endianness формата : Big
Идентификатор кодека : 2000
Продолжительность : 24 м. 22 с.
Вид битрейта : Постоянный
Битрейт : 224 Кбит/сек
Каналы : 2 канала
Расположение каналов : Front: L R
Частота : 48,0 КГц
Частота кадров : 31,250 кадров/сек (1536 spf)
Битовая глубина : 16 бит
Метод сжатия : С потерями
Размер потока : 39,1 Мбайт (12%)
Выравнивание : Разделение по промежуткам
Продолжительность промежутка : 42 мс. (1,00 видеокадр)
Время предзагрузки промежутка : 500 мс.
Детали торрента:
Название:Tenkuu Senki Shurato / Heaven Wars Shurato / Небесные войны Сюрато [1989, TV, 38 из 38] HDDVDRip 768p raw
Дата добавления:05 Фев 2017 12:14:12
Размер:12,3 GB
Раздают:1
Качают:0
Форум:Аниме (SD)

All rights reserved © 2015-2018