TORRENTS43.COM

Скачать Deep Dish - Junk Science (1998) [APE|Lossless|image + .cue] <Deep House>


Deep Dish - Junk Science (1998)
Автор рипа: digital2015
Жанр: Deep House
Издание: Deconstruction ‎– 74321 580342 (UK)
Источник: Discogs
Продолжительность: 01:17:50
Кодек: APE
Битрейт: Lossless
Тип рипа: image + .cue
Треклист:
01. Intro - Morning Wood
02. The Future Of The Future (Stay Gold)
03. Summer's Over
04. Mohammed Is Jesus...
05. Stranded
06. Junk Science
07. Sushi
08. My Only Sin
09. Monsoon
10. Persepolis
11. Chocolate City (Love Songs)
12. Mohammed Is Jesus...(In Dub)
13. Wear The Hat

Отчёт EAC:


Exact Audio Copy V1.0 beta 3 from 29. August 2011

Отчёт EAC об извлечении, выполненном 12. февраля 2017, 15:21

Deep Dish / Junk Science

Дисковод: _NEC NR-7700A Adapter: 0 ID: 1

Режим чтения : Достоверность
Использование точного потока : Да
Отключение кэша аудио : Да
Использование указателей C2 : Нет

Коррекция смещения при чтении : 685
Способность читать области Lead-in и Lead-out : Нет
Заполнение пропущенных сэмплов тишиной : Да
Удаление блоков с тишиной в начале и конце : Нет
При вычислениях CRC использовались нулевые сэмплы : Да
Интерфейс : Встроенный Win32-интерфейс для Win NT/2000

Выходной формат : Внутренние WAV-операции
Формат сэмплов : 44.100 Гц; 16 бит; стерео

TOC извлечённого CD

Трек | Старт | Длительность | Начальный сектор | Конечный сектор
---------------------------------------------------------------------
1 | 0:00.00 | 2:19.62 | 0 | 10486
2 | 2:19.62 | 9:28.45 | 10487 | 53131
3 | 11:48.32 | 7:13.55 | 53132 | 85661
4 | 19:02.12 | 4:46.55 | 85662 | 107166
5 | 23:48.67 | 7:09.63 | 107167 | 139404
6 | 30:58.55 | 3:55.17 | 139405 | 157046
7 | 34:53.72 | 7:51.05 | 157047 | 192376
8 | 42:45.02 | 4:04.73 | 192377 | 210749
9 | 46:50.00 | 6:50.62 | 210750 | 241561
10 | 53:40.62 | 2:56.18 | 241562 | 254779
11 | 56:37.05 | 10:27.70 | 254780 | 301874
12 | 67:05.00 | 5:15.35 | 301875 | 325534
13 | 72:20.35 | 5:29.30 | 325535 | 350239

Характеристики диапазона извлечения и сообщения об ошибках

Выбранный диапазон

Имя файла H:\[Torrents43.com] Deep Dish - Junk Science [CD] - 1998\Deep Dish - Junk Science (1998).wav

Пиковый уровень 99.7 %
Скорость извлечения 5.0 X
Качество диапазона 100.0 %
CRC теста 0A0F2CC7
CRC копии 0A0F2CC7
Копирование... OK

Ошибок не произошло

AccurateRip: сводка

Трек 1 точность не определена (достоверность 12) [D9EFD3D4], AccurateRip вернул [D1640175] (AR v2)
Трек 2 точность не определена (достоверность 12) [C04E9118], AccurateRip вернул [FDD0535C] (AR v2)
Трек 3 точность не определена (достоверность 12) [520D113F], AccurateRip вернул [A36293B8] (AR v2)
Трек 4 точность не определена (достоверность 12) [7D3A48E4], AccurateRip вернул [02B0DEB8] (AR v2)
Трек 5 точность не определена (достоверность 12) [EF6B7BFA], AccurateRip вернул [7EAB5AE8] (AR v2)
Трек 6 точность не определена (достоверность 12) [7AAAE8EE], AccurateRip вернул [C30F5BE2] (AR v2)
Трек 7 точность не определена (достоверность 12) [E0DB5FDB], AccurateRip вернул [4692BF81] (AR v2)
Трек 8 точность не определена (достоверность 12) [53771728], AccurateRip вернул [DD48753F] (AR v2)
Трек 9 точность не определена (достоверность 12) [8783FC4E], AccurateRip вернул [062A5DE0] (AR v2)
Трек 10 точность не определена (достоверность 12) [0F0FF400], AccurateRip вернул [E597A033] (AR v2)
Трек 11 точность не определена (достоверность 12) [A985DB0F], AccurateRip вернул [A54EF29A] (AR v2)
Трек 12 точность не определена (достоверность 12) [02B3F28F], AccurateRip вернул [8D7CF658] (AR v2)
Трек 13 точность не определена (достоверность 11) [8CA64F50], AccurateRip вернул [7265965E] (AR v2)

Ни один трек не прошёл проверки на точность
В вашей базе может быть иной вариант штамповки диска

Конец отчёта

==== Контрольная сумма отчёта 417693995996DAD669FE6FA834C45C9C179A2413F4F3B0566E81BF0CE4079777 ====

Cue Sheet (.cue):


REM GENRE House
REM DATE 1998
REM DISCID 9D123D0D
REM COMMENT "ExactAudioCopy v1.0b3"
PERFORMER "Deep Dish"
TITLE "Junk Science"
FILE "Deep Dish - Junk Science (1998).ape" WAVE
TRACK 01 AUDIO
TITLE "Intro - Morning Wood"
PERFORMER "Deep Dish"
INDEX 01 00:00:00
TRACK 02 AUDIO
TITLE "The Future Of The Future (Stay Gold)"
PERFORMER "Deep Dish"
INDEX 01 02:19:62
TRACK 03 AUDIO
TITLE "Summer's Over"
PERFORMER "Deep Dish"
INDEX 00 11:47:60
INDEX 01 11:48:32
TRACK 04 AUDIO
TITLE "Mohammed Is Jesus..."
PERFORMER "Deep Dish"
INDEX 01 19:02:12
TRACK 05 AUDIO
TITLE "Stranded"
PERFORMER "Deep Dish"
INDEX 01 23:48:67
TRACK 06 AUDIO
TITLE "Junk Science"
PERFORMER "Deep Dish"
INDEX 01 30:58:55
TRACK 07 AUDIO
TITLE "Sushi"
PERFORMER "Deep Dish"
INDEX 00 34:53:40
INDEX 01 34:53:72
TRACK 08 AUDIO
TITLE "My Only Sin"
PERFORMER "Deep Dish"
INDEX 00 42:44:37
INDEX 01 42:45:02
TRACK 09 AUDIO
TITLE "Monsoon"
PERFORMER "Deep Dish"
INDEX 01 46:50:00
TRACK 10 AUDIO
TITLE "Persepolis"
PERFORMER "Deep Dish"
INDEX 01 53:40:62
TRACK 11 AUDIO
TITLE "Chocolate City (Love Songs)"
PERFORMER "Deep Dish"
INDEX 01 56:37:05
TRACK 12 AUDIO
TITLE "Mohammed Is Jesus...(In Dub)"
PERFORMER "Deep Dish"
INDEX 01 67:05:00
TRACK 13 AUDIO
TITLE "Wear The Hat"
PERFORMER "Deep Dish"
INDEX 00 72:19:30
INDEX 01 72:20:35

Отчёт auCDtect Task manager:


-----------------------

DON'T MODIFY THIS FILE

-----------------------

PERFORMER: auCDtect Task Manager, ver. 1.6.0 RC1 build 1.6.0.1
Copyright (c) 2008-2010 y-soft. All rights reserved
http://y-soft.org

ANALYZER: auCDtect: CD records authenticity detector, version 0.8.2
Copyright (c) 2004 Oleg Berngardt. All rights reserved.
Copyright (c) 2004 Alexander Djourik. All rights reserved.

FILE: Deep Dish - Junk Science (1998).ape
Size: 485101324 Hash: AFEA3051CC9D9CA4738C089BAAE64A1A Accuracy: -m0
Conclusion: CDDA 99%
Signature: EDB2DE517213C25CB1265438E9C47C810EC8B597

Отчёт DRM (DR11):


foobar2000 1.1.3 / Dynamic Range Meter 1.1.1
log date: 2017-02-12 18:08:39

--------------------------------------------------------------------------------
Analyzed: Deep Dish / Junk Science
--------------------------------------------------------------------------------

DR Peak RMS Duration Track
--------------------------------------------------------------------------------
DR11 -0.11 dB -15.31 dB 2:20 ?-Intro - Morning Wood
DR10 -0.11 dB -12.14 dB 9:29 ?-The Future Of The Future (Stay Gold)
DR10 -0.09 dB -11.95 dB 7:14 ?-Summer's Over
DR10 -0.11 dB -11.40 dB 4:47 ?-Mohammed Is Jesus...
DR11 -0.11 dB -13.67 dB 7:10 ?-Stranded
DR10 -0.10 dB -13.48 dB 3:55 ?-Junk Science
DR11 -0.10 dB -12.53 dB 7:51 ?-Sushi
DR10 -0.09 dB -11.52 dB 4:05 ?-My Only Sin
DR11 -0.07 dB -13.25 dB 6:51 ?-Monsoon
DR11 -0.10 dB -13.83 dB 2:56 ?-Persepolis
DR11 -0.11 dB -12.79 dB 10:28 ?-Chocolate City (Love Songs)
DR10 -0.07 dB -11.45 dB 5:15 ?-Mohammed Is Jesus...(In Dub)
DR12 -0.11 dB -12.83 dB 5:29 ?-Wear The Hat
--------------------------------------------------------------------------------

Number of tracks: 13
Official DR value: DR11

Samplerate: 44100 Hz
Channels: 2
Bits per sample: 16
Bitrate: 831 kbps
Codec: Monkey's Audio
================================================================================

Сovers:






YouTube

YouTube

Детали торрента:
Название:Deep Dish - Junk Science (1998) [APE|Lossless|image + .cue] <Deep House>
Дата добавления:12 Фев 2017 16:47:59
Размер:465 MB
Раздают:1
Качают:0
Форум:House, Techno, Electro, Minimal (Lossless)

All rights reserved © 2015-2018