TORRENTS43.COM

Скачать Шугарлендский экспресс / The Sugarland Express (1974) BDRip [H.265/1080p-LQ]


Шугарлендский экспресс / The Sugarland Express (1974) BDRip
Производство: США / Universal Pictures, Zanuck/Brown Productions
Жанр: Драма, Комедия, Криминал, Приключения

Режиссер: Стивен Спилберг
Актеры: Голди Хоун, Бен Джонсон, Майкл Сакс, Уильям Этертон, Грегори Уэлкотт, Стив Кэнэли, Луиз Лэтэм, Харрисон Занук, А.Л. Кэмп, Джесси Ли Фултон, Дин Смит, Тед Гроссман, Билл Турман, Кеннет Хаджинс, Бастер Дэниелс, Джеймс Н. Харрелл, Гуч Кук, Джин Рейдер, Руди Роббинс, Ричард Брайт

Описание:
Молодая супружеская пара с криминальным прошлым переживает более серьезную, чем тюремное заключение, трагедию: по приговору суда их маленький ребенок должен быть отдан в чужую семью. И тогда жена уговаривает на побег из тюрьмы мужа, затем они вдвоем угоняют полицейскую машину, взяв в заложники блюстителя закона, после чего отправляются в путь по дорогам Техаса, сопровождаемые караваном полицейских автомобилей. Они мчатся, не зная, что ждет их впереди...


Возраст: 16+ (зрителям, достигшим 16 лет)
Рейтинг MPAA: PG (рекомендуется присутствие родителей)

Релиз от: Luigi36

Продолжительность: 01:49:52
Качество видео: BDRip
Перевод: Многоголосый закадровый (Blu-Ray CEE)
Язык Субтитров: Русский (Полные), русский (форсированные)
Вид субтитров: Вшитые, отключаемые

Видео: HEVC/H.265, 1920x816, ~7326 Kbps
Аудио: AC3, 2 ch, 224 Kbps

Mediainfo:


Общее
Уникальный идентификатор : 244745255481215030430567268630421594925 (0xB82038BC996EB3F483A22C757838632D)
Полное имя : E:\Video\Шугарлендский экспресс (The Sugarland Express).mkv
Формат : Matroska
Версия формата : Version 4 / Version 2
Размер файла : 5,80 Гбайт
Продолжительность : 1 ч. 49 м.
Общий поток : 7553 Кбит/сек
Название фильма : Шугарлендский экспресс / The Sugarland Express
Дата кодирования : UTC 2017-03-04 12:55:04
Программа кодирования : mkvmerge v9.7.1 ('Pandemonium') 64bit
Библиотека кодирования : libebml v1.3.4 + libmatroska v1.4.5
Attachments : 9eda74bee452adac5573ff74c226a21d.png

Видео
Идентификатор : 1
Формат : HEVC
Формат/Информация : High Efficiency Video Coding
Профиль формата : Main@L4@Main
Идентификатор кодека : V_MPEGH/ISO/HEVC
Продолжительность : 1 ч. 49 м.
Битрейт : 7326 Кбит/сек
Ширина : 1920 пикселей
Высота : 816 пикселей
Соотношение сторон : 2,35:1
Режим частоты кадров : Постоянный
Частота кадров : 23,976 (24000/1001) кадра/сек
Цветовое пространство : YUV
Субдискретизация насыщенности : 4:2:0
Битовая глубина : 8 бит
Бит/(Пиксели*Кадры) : 0.195
Размер потока : 5,62 Гбайт (97%)
Заголовок : Sugarland Express BdRip 1080p HEVC (*** Luigi36 ***)
Библиотека кодирования : x265 2.0:[Windows][GCC 5.4.0][64 bit] 8bit
Настройки программы : wpp / ctu=64 / min-cu-size=8 / max-tu-size=32 / tu-intra-depth=1 / tu-inter-depth=1 / me=2 / subme=2 / merange=57 / no-rect / no-amp / max-merge=2 / temporal-mvp / early-skip / rskip / rdpenalty=0 / no-tskip / no-tskip-fast / strong-intra-smoothing / no-lossless / no-cu-lossless / no-constrained-intra / fast-intra / open-gop / no-temporal-layers / interlace=0 / keyint=240 / min-keyint=24 / scenecut=40 / rc-lookahead=15 / lookahead-slices=5 / bframes=4 / bframe-bias=0 / b-adapt=0 / ref=2 / limit-refs=3 / no-limit-modes / weightp / no-weightb / aq-mode=1 / qg-size=32 / aq-strength=1.00 / cbqpoffs=0 / crqpoffs=0 / rd=2 / psy-rd=2.00 / rdoq-level=0 / psy-rdoq=0.00 / no-rd-refine / signhide / deblock=0:0 / sao / no-sao-non-deblock / b-pyramid / cutree / no-intra-refresh / rc=crf / crf=19.0 / qcomp=0.60 / qpmin=0 / qpmax=51 / qpstep=4 / ipratio=1.40 / pbratio=1.30
Default : Да
Forced : Нет
Цветовой диапазон : Limited
Основные цвета : BT.709
Характеристики трансфера : BT.709
Коэффициенты матрицы : BT.709

Аудио
Идентификатор : 2
Формат : AC-3
Формат/Информация : Audio Coding 3
Расширение режима : CM (complete main)
Параметр Endianness формата : Big
Идентификатор кодека : A_AC3
Продолжительность : 1 ч. 49 м.
Вид битрейта : Постоянный
Битрейт : 224 Кбит/сек
Каналы : 2 канала
Расположение каналов : Front: L R
Частота : 48,0 КГц
Частота кадров : 31,250 кадров/сек (1536 spf)
Метод сжатия : С потерями
Размер потока : 176 Мбайт (3%)
Заголовок : Перевод: Профессиональный (многоголосый закадровый) BD (CEE)
Язык : Russian
Default : Да
Forced : Нет

Текст #1
Идентификатор : 3
Формат : UTF-8
Идентификатор кодека : S_TEXT/UTF8
Идентификатор кодека/Информация : UTF-8 Plain Text
Продолжительность : 1 ч. 48 м.
Битрейт : 1 бит/сек
Count of elements : 27
Размер потока : 1,46 Кбайт (0%)
Заголовок : Форсированные
Язык : Russian
Default : Да
Forced : Нет

Текст #2
Идентификатор : 4
Формат : UTF-8
Идентификатор кодека : S_TEXT/UTF8
Идентификатор кодека/Информация : UTF-8 Plain Text
Продолжительность : 1 ч. 48 м.
Битрейт : 90 бит/сек
Count of elements : 1183
Размер потока : 71,9 Кбайт (0%)
Заголовок : Полные
Язык : Russian
Default : Нет
Forced : Нет

Меню
00:00:00.000 : en:00:00:00.000
00:04:42.782 : en:00:04:42.782
00:11:51.419 : en:00:11:51.419
00:16:06.674 : en:00:16:06.674
00:22:45.614 : en:00:22:45.614
00:29:14.628 : en:00:29:14.628
00:36:26.476 : en:00:36:26.476
00:42:26.335 : en:00:42:26.335
00:47:49.658 : en:00:47:49.658
00:54:33.103 : en:00:54:33.103
01:00:29.000 : en:01:00:29.000
01:07:04.646 : en:01:07:04.646
01:15:25.396 : en:01:15:25.396
01:22:00.707 : en:01:22:00.707
01:27:29.619 : en:01:27:29.619
01:34:07.600 : en:01:34:07.600
01:39:14.991 : en:01:39:14.991
01:48:08.857 : en:01:48:08.857

XMP
Xmp.video.FileName : E:\Video\Шугарлендский экспресс (The Sugarland Express).mkv
Xmp.video.FileSize : -9.53674e-007
Xmp.video.MimeType : video/matroska
Xmp.video.EBMLVersion : 1
Xmp.video.EBMLReadVersion : 1
Xmp.video.DocType : matroska
Xmp.video.DocTypeVersion : 4
Xmp.video.DocTypeReadVersion : 2
Xmp.video.TimecodeScale : 0.001
Xmp.video.MuxingApp : libebml v1.3.4 + libmatroska v1.4.5
Xmp.video.WritingApp : mkvmerge v9.7.1 ('Pandemonium') 64bit
Xmp.video.Duration : 6592419
Xmp.video.DateUTC : 510324904
Xmp.video.Title : Шугарлендский экспресс / The Sugarland Express
Xmp.video.TotalStream : 12
Xmp.video.TrackLacing : No
Xmp.video.Codec : V_MPEGH/ISO/HEVC
Xmp.video.FrameRate : 23.976
Xmp.video.TrackLang : und
Xmp.video.TrackName : Полные
Xmp.video.Width : 1920
Xmp.video.Height : 816
Xmp.audio.Compressor : A_AC3
Xmp.audio.DefaultDuration : 32000
Xmp.audio.TrackLang : rus
Xmp.audio.SampleRate : 48000
Xmp.audio.ChannelType : Stereo
Xmp.video.SubTTrackLacing : No
Xmp.video.SubTCodec : S_TEXT/UTF8
Xmp.video.SubTLang : rus
Xmp.video.SubTDefaultOn : No
Xmp.video.AttachFileName : 9eda74bee452adac5573ff74c226a21d.png
Xmp.video.AttachFileMIME : image/png
Xmp.video.AttachFileUID : 6616296935399629741
Xmp.video.AttachFileDesc : BD Cover
Xmp.video.AspectRatio : 2.35:1
Скриншоты:


Все одноименные релизы в Клубе

Смотреть Online

http://moonwalk.cc/video/cfa40ca6b653a41c/iframe
Детали торрента:
Название:Шугарлендский экспресс / The Sugarland Express (1974) BDRip [H.265/1080p-LQ]
Дата добавления:06 Мар 2017 07:42:58
Размер:5,8 GB
Раздают:1
Качают:0
Форум:Зарубежная Классика (HD*Rip/LQ, DVDRip, SATRip, VHSRip)

All rights reserved © 2015-2018