TORRENTS43.COM

Скачать РенТВ | Ремонт по-честному [23 выпуска] (2017) SATRip [Обновляемая]


РенТВ | Ремонт по-честному [23 выпуска] (2017) SATRip [Обновляемая]
Автор (режиссер): РенТВ
Жанр: Ремонт, стройка

Ведущие: дизайнер Илья Рыков и прораб Алексей Самсонов

Описание:
На РЕН ТВ премьера самой честной - на российском телевидении - программы о ремонте «Ремонт по-честному».
Вы узнаете, как обновить квартиру и не дать себя обмануть.
Ведущие проекта – профессиональный дизайнер Илья Рыков и опытный прораб Алексей Самсонов – знают о ремонте все!
Они выберут счастливчиков и отремонтируют их квартиры не по завышенной смете жадных строителей, а по реальным ценам.
Прораб Алексей расскажет, как вывести на чистую воду обманщиков, а дизайнер Илья – поможет правильно подобрать материалы.
«Ремонт по-честному» разрушит миф: хороший ремонт – это слишком дорого.

Продолжительность: 23х ~ 00:36:00
Качество видео: SATRip

Видео: Xvid, 720х400-704х448, ~1399-1800 kbps
Аудио: MP3, 2 ch, 128-192 kbps

MediaInfo и скриншоты отдельных серий:

Выпуск 01 от 28.01.2016:

Главным пожеланием артиста цирка Дмитрия Сорокина было изменить внешний вид спальни кардинально! Но при этом, сделать комнату уютной и функциональной. Мы решили отойти от стереотипного мышления ибуквально перевернули все с ног на голову! Например, отделка потолка и пола выполнены в одном материале (ламинат с текстурой дуба).Вместительный шкаф для одежды мы разместили почти по центру помещения, а не у стены, как это обычно принято. Обратная стенка шкафа является стеной с арт-объектом. Таким образом, мы получили полноценную проходную гардеробную с выходом в санузел. Проект выполнен в современном стиле. Из материалов активно использовали дерево, металл, кожу. В зоне кровати интегрирован ковролин, а изголовье выполнено из замшевой кожи (Алькантара). Точечные спаренные светильники врезаны в потолок и равномерно распределяют свет по всему пространству. Текстильное оформление дополнило весь дизайн, придав интерьеру уют и законченный вид.

MediaInfo:


Общее
Полное имя : D:\Films\Ремонт по-честному (2017) (Torrents43.com)\01. Remont.po.chestnomu.28.01.2017.avi
Формат : AVI
Формат/Информация : Audio Video Interleave
Размер файла : 418 Мбайт
Продолжительность : 35 м. 39 с.
Общий поток : 1637 Кбит/сек
Программа кодирования : VirtualDubMod 1.5.10.3 | www.virtualdub-fr.org || (build 2550/release)
Библиотека кодирования : VirtualDubMod build 2550/release

Видео
Идентификатор : 0
Формат : MPEG-4 Visual
Профиль формата : Advanced Simple@L5
Параметр BVOP формата : 2
Параметр QPel формата : Нет
Параметр GMC формата : Без точки перехода
Параметр матрицы формата : Default (H.263)
Идентификатор кодека : XVID
Идентификатор кодека/Подсказка : XviD
Продолжительность : 35 м. 39 с.
Битрейт : 1499 Кбит/сек
Ширина : 720 пикселей
Высота : 400 пикселей
Соотношение сторон : 16:9
Частота кадров : 25,000 кадров/сек
Цветовое пространство : YUV
Субдискретизация насыщенности : 4:2:0
Битовая глубина : 8 бит
Тип развёртки : Прогрессивная
Метод сжатия : С потерями
Бит/(Пиксели*Кадры) : 0.208
Размер потока : 382 Мбайт (92%)
Библиотека кодирования : XviD 1.2.1 (UTC 2008-12-04)

Аудио
Идентификатор : 1
Формат : AC-3
Формат/Информация : Audio Coding 3
Параметр Endianness формата : Big
Идентификатор кодека : 2000
Продолжительность : 35 м. 39 с.
Вид битрейта : Постоянный
Битрейт : 128 Кбит/сек
Каналы : 2 канала
Расположение каналов : Front: L R
Частота : 48,0 КГц
Частота кадров : 31,250 кадров/сек (1536 spf)
Битовая глубина : 16 бит
Метод сжатия : С потерями
Размер потока : 32,6 Мбайт (8%)
Выравнивание : Разделение по промежуткам
Продолжительность промежутка : 40 мс. (1,00 видеокадр)
Время предзагрузки промежутка : 500 мс.
ServiceKind/String : Complete Main

Выпуск 02 от 04.02.2016:

Заслуженный артист России, Кай Метов был готов к любым дизайнерским идеям. Единственное его пожелание – оставить картину, подаренную дочерью и сохранить рояль. Основная задача – сделать хорошую звукоизоляцию, что позволит артисту творить в любое время и не мешать соседям. Для решения этой проблемы использовали минеральную вату, обладающую противопожарным и влагонепроницаемым эффектом. Натяжной потолок будет создавать дополнительную звукоизоляции и предотвратит появление трещин. В гостиной недостаточно природного освещения, поэтому в дизайн-проекте предусмотрено большое количество источников света. Светлую отделку стен удачно дополнили молдинги, добавляя интерьеру классические нотки. На одной из стен гостиной установили камин, ниша которого покрыта черной краской, а портал украшен мозаикой. Над камином – шкаф из гипсокартона с мобильной перегородкой, за которой спрятан телевизор. Внешнюю сторону перегородки украшает картина. Ниша с радиатором закрыта перфорированным экраном. Центральное место в гостиной занимает рояль, а диван и два кресла уютно расположились в зоне камина. Яркие шторы, фотографии, оформленные в паспарту, диски артиста – все эти детали дополняют интерьер и расставляют акценты. Гостиная получилась благородной, классической, ив то же время, очень современной и практичной.

MediaInfo:


Общее
Полное имя : D:\Films\Ремонт по-честному (2017) (Torrents43.com)\02. Remont.po.chestnomu.04.02.2017.avi
Формат : AVI
Формат/Информация : Audio Video Interleave
Размер файла : 484 Мбайт
Продолжительность : 33 м. 50 с.
Общий поток : 2002 Кбит/сек
Программа кодирования : VirtualDubMod 1.5.10.3 | www.virtualdub-fr.org || (build 2550/release)
Библиотека кодирования : VirtualDubMod build 2550/release

Видео
Идентификатор : 0
Формат : MPEG-4 Visual
Профиль формата : Advanced Simple@L5
Параметр BVOP формата : 2
Параметр QPel формата : Нет
Параметр GMC формата : Без точки перехода
Параметр матрицы формата : Default (H.263)
Идентификатор кодека : XVID
Идентификатор кодека/Подсказка : XviD
Продолжительность : 33 м. 50 с.
Битрейт : 1800 Кбит/сек
Ширина : 704 пикселя
Высота : 448 пикселей
Соотношение сторон : 16:10
Частота кадров : 25,000 кадров/сек
Цветовое пространство : YUV
Субдискретизация насыщенности : 4:2:0
Битовая глубина : 8 бит
Тип развёртки : Прогрессивная
Метод сжатия : С потерями
Бит/(Пиксели*Кадры) : 0.228
Размер потока : 436 Мбайт (90%)
Библиотека кодирования : XviD 1.2.1 (UTC 2008-12-04)

Аудио
Идентификатор : 1
Формат : MPEG Audio
Версия формата : Version 1
Профиль формата : Layer 3
Режим : Joint stereo
Расширение режима : MS Stereo
Идентификатор кодека : 55
Идентификатор кодека/Подсказка : MP3
Продолжительность : 33 м. 50 с.
Вид битрейта : Постоянный
Битрейт : 192 Кбит/сек
Каналы : 2 канала
Частота : 48,0 КГц
Метод сжатия : С потерями
Размер потока : 46,5 Мбайт (10%)
Выравнивание : Соединение по промежуткам
Продолжительность промежутка : 40 мс. (1,00 видеокадр)
Время предзагрузки промежутка : 504 мс.
Библиотека кодирования : LAME3.99r
Настройки программы : -m j -V 4 -q 9 -lowpass 18.6 -b 192

Выпуск 03 от 11.02.2016:

Изначальным пожеланием заказчика, известного Российского актёра театра и кино Александра Самойленко была гостиная-студия в Восточном стиле. Множество ярких акцентов и узоров должны напоминать город, в котором родился и вырос актер. Но при этом интерьер должен быть по- домашнему уютным. Мы решили кардинально изменить концепцию дизайна- интерьера в Европейскую сторону и наполнить его Итальянским колоритом. Это была смелая идея, т.к. изначально пожелания заказчика были совсем иными.

Одним из главных элементов декора стала стена, вдоль которой располагалась малофункциональная кухня. На месте старого кухонного гарнитура мы расположили большой очаг-камин, в котором предусмотрен бар и органично вписывается ТВ-аппаратура. На стенах был создан 3D-эффект, имитирующий старую Итальянскую улочку. Он был достигнут благодаря сочетанию двух фактур – это: состаренная фреска с фотопечатью и кирпич «Венеция».

Самыми главными изменениями в проекте являются полная реконструкция стен. При данной планировке мы получили не только открытое студийное пространство, но и изолированную спальню, которая трансформируется в приватную зону за счет раздвижной зеркальной перегородки.

В интерьере мы использовали множество нестандартных приемов декора, таких как:

Вместо обычного шерстяного ковра мы создали художественный паркет.
На стенах мы использовали эксклюзивное многослойное декоративное покрытие с эффектом старины. На потолке возвели балки из гипсокартона с фактурой имитирующей текстуру дерева.

Мебель в интерьере полностью из массива сложного оттенка серого. Применили много разного освещения, что добавило дополнительный комфорт и функциональность помещению.

В итоге у нас получился уютный интерьер, городской квартиры. Студия-трансформер стала неожиданным сюрпризом для заказчика.

MediaInfo:


Общее
Полное имя : D:\Films\Ремонт по-честному (2017) (Torrents43.com)\03. Remont.po.chestnomu.11.02.2017.avi
Формат : AVI
Формат/Информация : Audio Video Interleave
Размер файла : 503 Мбайт
Продолжительность : 35 м. 7 с.
Общий поток : 2002 Кбит/сек
Программа кодирования : VirtualDubMod 1.5.10.3 | www.virtualdub-fr.org || (build 2550/release)
Библиотека кодирования : VirtualDubMod build 2550/release

Видео
Идентификатор : 0
Формат : MPEG-4 Visual
Профиль формата : Advanced Simple@L5
Параметр BVOP формата : 2
Параметр QPel формата : Нет
Параметр GMC формата : Без точки перехода
Параметр матрицы формата : Default (H.263)
Идентификатор кодека : XVID
Идентификатор кодека/Подсказка : XviD
Продолжительность : 35 м. 7 с.
Битрейт : 1800 Кбит/сек
Ширина : 704 пикселя
Высота : 448 пикселей
Соотношение сторон : 16:10
Частота кадров : 25,000 кадров/сек
Цветовое пространство : YUV
Субдискретизация насыщенности : 4:2:0
Битовая глубина : 8 бит
Тип развёртки : Прогрессивная
Метод сжатия : С потерями
Бит/(Пиксели*Кадры) : 0.228
Размер потока : 452 Мбайт (90%)
Библиотека кодирования : XviD 1.2.1 (UTC 2008-12-04)

Аудио
Идентификатор : 1
Формат : MPEG Audio
Версия формата : Version 1
Профиль формата : Layer 3
Режим : Joint stereo
Расширение режима : MS Stereo
Идентификатор кодека : 55
Идентификатор кодека/Подсказка : MP3
Продолжительность : 35 м. 7 с.
Вид битрейта : Постоянный
Битрейт : 192 Кбит/сек
Каналы : 2 канала
Частота : 48,0 КГц
Метод сжатия : С потерями
Размер потока : 48,2 Мбайт (10%)
Выравнивание : Соединение по промежуткам
Продолжительность промежутка : 40 мс. (1,00 видеокадр)
Время предзагрузки промежутка : 504 мс.
Библиотека кодирования : LAME3.99r
Настройки программы : -m j -V 4 -q 9 -lowpass 18.6 -b 192

Выпуск 04 от 18.02.2016:

В семье актеров Павла Прилучного и Агаты Муциниеце подрастают двое замечательных детей - сын и дочка. Передо мной стояла задача, близкая многим, как же разместить двух разнополых детей с разницей в возрасте и своими интересами в одной комнате, при этом сохранив пространство для игр и создав систему хранения многочисленных вещей и игрушек.
Я решила воссоздать в интерьере кусочек волшебной сказки о кругосветном путешествии Гулливера на воздушном шаре по звездному небу, а потом на корабле, бороздящем просторы океана в поисках сокровищ и прекрасной жемчужины. Главным кэпом, рулевым и исследователем, конечно, будет старший мальчик, поэтому в его зоне расположена кровать с окном иллюминатора для обзора просторов и наблюдения, а на первом ее ярусе зона хранения - шкафы и ящики для "припасов и завоеванных богатств". Фасады шкафов и стену мы покрыли грифельной краской, чтобы можно было без ограничений рисовать маршруты, мечты и планы на будущее. Зона девочки оформлена нежно и стилизована под раковину той самой жемчужины в виде круглой кровати. Пузырьковые панели создают расслабляющий эффект, а за счет светодиодной подсветки могут менять цвета и оттенки всей комнаты. Как говорится: "Можно бесконечно смотреть, как горит огонь, течет вода и как другие работают". Мы пошли самым безопасным для детей путем.

Визуально зоны разделены ковролином в форме волны, это позволяет оставить свободным пространство в центре для игр. Общая цветовая гамма комнаты светло-бежевая, но при помощи разных цветовых режимов подсветки потолка, стен и звездного неба можно свободно изменить цветовое восприятие всего помещения, тем самым каждый день можно воспроизводить новые сюжеты.

MediaInfo:


Общее
Полное имя : D:\Films\Ремонт по-честному (2017) (Torrents43.com)\04. Remont.po.chestnomu.18.02.2017.avi
Формат : AVI
Формат/Информация : Audio Video Interleave
Размер файла : 417 Мбайт
Продолжительность : 35 м. 38 с.
Общий поток : 1637 Кбит/сек
Программа кодирования : VirtualDubMod 1.5.10.3 | www.virtualdub-fr.org || (build 2550/release)
Библиотека кодирования : VirtualDubMod build 2550/release

Видео
Идентификатор : 0
Формат : MPEG-4 Visual
Профиль формата : Advanced Simple@L5
Параметр BVOP формата : 2
Параметр QPel формата : Нет
Параметр GMC формата : Без точки перехода
Параметр матрицы формата : Default (H.263)
Идентификатор кодека : XVID
Идентификатор кодека/Подсказка : XviD
Продолжительность : 35 м. 38 с.
Битрейт : 1499 Кбит/сек
Ширина : 720 пикселей
Высота : 400 пикселей
Соотношение сторон : 16:9
Частота кадров : 25,000 кадров/сек
Цветовое пространство : YUV
Субдискретизация насыщенности : 4:2:0
Битовая глубина : 8 бит
Тип развёртки : Прогрессивная
Метод сжатия : С потерями
Бит/(Пиксели*Кадры) : 0.208
Размер потока : 382 Мбайт (92%)
Библиотека кодирования : XviD 1.2.1 (UTC 2008-12-04)

Аудио
Идентификатор : 1
Формат : AC-3
Формат/Информация : Audio Coding 3
Параметр Endianness формата : Big
Идентификатор кодека : 2000
Продолжительность : 35 м. 38 с.
Вид битрейта : Постоянный
Битрейт : 128 Кбит/сек
Каналы : 2 канала
Расположение каналов : Front: L R
Частота : 48,0 КГц
Частота кадров : 31,250 кадров/сек (1536 spf)
Битовая глубина : 16 бит
Метод сжатия : С потерями
Размер потока : 32,6 Мбайт (8%)
Выравнивание : Разделение по промежуткам
Продолжительность промежутка : 40 мс. (1,00 видеокадр)
Время предзагрузки промежутка : 500 мс.
ServiceKind/String : Complete Main

Выпуск 05 от 25.02.2016:

Главным пожеланием известного российского актера театра и кино Павла Деревянко было изменить внешний вид кухни. Сделать ее более современной, функциональной и располагающей к приятному провождению времени с друзьями. Он не стал нас ограничивать в дизайнерских решениях, лишь упомянул о сохранении карты Мира на стене.

Для решения этой задачи мы кардинально поменяли расположение кухонной мебели - по диагонали. За счет высоты потолка - 3,55 - кухонный гарнитур установили на подиум со встроенным диваном-лавкой и вместительными выдвижными ящикам. Всю эту геометрическую конструкцию дополнил зеркальный натяжной потолок, который зрительно еще больше вытянул помещение по объему. Зеркальная мозаика придает кухни объема.

В проекте предусмотрели разный свет: подсветка подиума и потолка по периметру. Светильники, встроенные в стену в виде углублений, подсветили мебельные шкафы. Завершающей частью все световой композицией стала центральная люстра.

Но самая сложная задача была сохранить карту Мира на стене, да еще интегрировать ее в новый интерьер. Для этого мы прибегли к такому приёму, как барельеф с подсветкой флуоресцентными красками и проекционным дизайном который работает за счёт проектора при полной темноте.

Нашему герою очень нравятся мандалы и мы их учли в столь современном дизайне расположив их принт на шторах «Японских панелях», а также картинах с холщёвой фактурой на подрамниках.

Задача стояла достаточно новая и смелая, но в целом её удалось воплотить.

MediaInfo:


Общее
Полное имя : D:\Films\Ремонт по-честному (2017) (Torrents43.com)\05. Remont.po.chestnomu.25.02.2017.avi
Формат : AVI
Формат/Информация : Audio Video Interleave
Размер файла : 390 Мбайт
Продолжительность : 35 м. 30 с.
Общий поток : 1537 Кбит/сек
Программа кодирования : VirtualDubMod 1.5.10.3 | www.virtualdub-fr.org || (build 2550/release)
Библиотека кодирования : VirtualDubMod build 2550/release

Видео
Идентификатор : 0
Формат : MPEG-4 Visual
Профиль формата : Advanced Simple@L5
Параметр BVOP формата : 2
Параметр QPel формата : Нет
Параметр GMC формата : Без точки перехода
Параметр матрицы формата : Default (H.263)
Идентификатор кодека : XVID
Идентификатор кодека/Подсказка : XviD
Продолжительность : 35 м. 30 с.
Битрейт : 1399 Кбит/сек
Ширина : 720 пикселей
Высота : 400 пикселей
Соотношение сторон : 16:9
Частота кадров : 25,000 кадров/сек
Цветовое пространство : YUV
Субдискретизация насыщенности : 4:2:0
Битовая глубина : 8 бит
Тип развёртки : Прогрессивная
Метод сжатия : С потерями
Бит/(Пиксели*Кадры) : 0.194
Размер потока : 355 Мбайт (91%)
Библиотека кодирования : XviD 1.2.1 (UTC 2008-12-04)

Аудио
Идентификатор : 1
Формат : MPEG Audio
Версия формата : Version 1
Профиль формата : Layer 3
Режим : Joint stereo
Расширение режима : MS Stereo
Идентификатор кодека : 55
Идентификатор кодека/Подсказка : MP3
Продолжительность : 35 м. 30 с.
Вид битрейта : Постоянный
Битрейт : 128 Кбит/сек
Каналы : 2 канала
Частота : 48,0 КГц
Метод сжатия : С потерями
Размер потока : 32,5 Мбайт (8%)
Выравнивание : Соединение по промежуткам
Продолжительность промежутка : 40 мс. (1,00 видеокадр)
Время предзагрузки промежутка : 504 мс.
Библиотека кодирования : LAME3.99r
Настройки программы : -m j -V 4 -q 2 -lowpass 17 -b 128

Выпуск 06 от 04.03.2016:

Главным пожеланием Российской певицы, солистки поп-группы «Фабрика» Александры Савельевой и ее семьи было сделать из гостиной светлое, уютное и функциональное пространство, т.к. в этом помещении собираются все родные и близкие.

Чтобы реализовать эти пожелания, мы решили разделить помещение на 3 функциональные зоны: 1 -хранение личных вещей, 2- зона отдыха на диване, 3- и композиция, у окна состоящая из стеллажей и мягкого уголка подоконника.

Основным приемом увеличения пространства является использование в интерьере акриловых и токопроводящих панелей - являющиеся центром помещения, которые соединяют стену и потолок, образуя единую вертикальную композицию.

Сочетание белых и салатовых цветов в интерьере мебели и стен, флористическая тема обоев и токопроводящих панелей создают ощущение весеннего настроение в изначально тёмном пространстве, поддерживаемое большим разнообразием главного и дополнительного освещения.

В итоге мы учли пожелания заказчика, помещение стало максимально функциональным и просторным, несмотря на свои малые габариты, но также внесли ряд интересных элементов, которые стали приятным сюрпризом.

MediaInfo:


Общее
Полное имя : D:\Films\Ремонт по-честному (2017) (Torrents43.com)\06. Remont.po.chestnomu.04.03.2017.avi
Формат : AVI
Формат/Информация : Audio Video Interleave
Размер файла : 491 Мбайт
Продолжительность : 34 м. 18 с.
Общий поток : 2002 Кбит/сек
Программа кодирования : VirtualDubMod 1.5.10.3 | www.virtualdub-fr.org || (build 2550/release)
Библиотека кодирования : VirtualDubMod build 2550/release

Видео
Идентификатор : 0
Формат : MPEG-4 Visual
Профиль формата : Advanced Simple@L5
Параметр BVOP формата : 2
Параметр QPel формата : Нет
Параметр GMC формата : Без точки перехода
Параметр матрицы формата : Default (H.263)
Идентификатор кодека : XVID
Идентификатор кодека/Подсказка : XviD
Продолжительность : 34 м. 18 с.
Битрейт : 1800 Кбит/сек
Ширина : 704 пикселя
Высота : 448 пикселей
Соотношение сторон : 16:10
Частота кадров : 25,000 кадров/сек
Цветовое пространство : YUV
Субдискретизация насыщенности : 4:2:0
Битовая глубина : 8 бит
Тип развёртки : Прогрессивная
Метод сжатия : С потерями
Бит/(Пиксели*Кадры) : 0.228
Размер потока : 442 Мбайт (90%)
Библиотека кодирования : XviD 1.2.1 (UTC 2008-12-04)

Аудио
Идентификатор : 1
Формат : MPEG Audio
Версия формата : Version 1
Профиль формата : Layer 3
Режим : Joint stereo
Расширение режима : MS Stereo
Идентификатор кодека : 55
Идентификатор кодека/Подсказка : MP3
Продолжительность : 34 м. 18 с.
Вид битрейта : Постоянный
Битрейт : 192 Кбит/сек
Каналы : 2 канала
Частота : 48,0 КГц
Метод сжатия : С потерями
Размер потока : 47,1 Мбайт (10%)
Выравнивание : Соединение по промежуткам
Продолжительность промежутка : 40 мс. (1,00 видеокадр)
Время предзагрузки промежутка : 504 мс.
Библиотека кодирования : LAME3.99r
Настройки программы : -m j -V 4 -q 9 -lowpass 18.6 -b 192

Выпуск 07 от 11.03.2016:

Проведение акций от сомнительных компаний – это всегда риск, а капитальный ремонт за половину стоимости гарантированный обман. Избежать мошенничества известной актрисе Нонне Гришаевой помог ремонт по-честному 11.03.2017г., оформляющий дизайнерские интерьеры по самой честной цене. Гостиная мамы в типовой московской квартире давно нуждается в капитальном ремонте, хозяйка мечтает избавиться от устаревшей мебели и отделки, обновить скучный давящий интерьер и создать в помещении особую атмосферу тепла и уюта. Комнату необходимо наполнить максимальной эргономичностью с практичным функционалом и душевным настроением.

Хозяйка отдает предпочтение лаконичному оформлению, наполненному светом и воздухом, придать ограниченному помещению достаточного простора и исправить сложную вытянутую геометрию помогут авторские приемы и творческие решения. В комнате требуется организовать комфортное место для уединенного отдыха и приема гостей, вместительные системы хранения для дорогих сердцу мелочей и семейного архива.

Основное требование главной героини проекта заключается в желании сохранить картины, написанные рукой ее любимой внучки и грамотно вписать их в обновленный интерьер. Мама и дочь единогласны в своих предпочтениях, они мечтают передать тепло южного берега Одессы в новой гостиной, скучая за родным городом и черноморскими пляжами.

Сложность планировки проходного пространства и ограниченность площади, автор решила грамотно обыграть и исправить при помощи мебели. Скрыть дверные проемы и коммуникации, установить большой угловой шкаф для драгоценного семейного архива и декоративных предметов. Напротив шкафа расположатся современный мягкий диван и раскладной стол, позволяющие комфортно отдохнуть и разместить большое количество гостей.

На стене за диваном разместят все картины внучки, а у окна установят торшер, как дополнительный источник света. Основным стилистическим направлением выбрана классика в теплых светлых тонах с яркими элементами и акцентными деталями. Дизайнеры постараются максимально реализовать все пожелания хозяев, передать их южный темперамент в настроении и оформлении гостиной, наполнить помещение практичным функционалом и теплом домашнего очага, выполнить профессиональный качественный ремонт и грамотно сэкономить.

MediaInfo:


Общее
Полное имя : D:\Films\Ремонт по-честному (2017) (Torrents43.com)\07. Remont.po.chestnomu.11.03.2017.avi
Формат : AVI
Формат/Информация : Audio Video Interleave
Размер файла : 422 Мбайт
Продолжительность : 36 м. 4 с.
Общий поток : 1637 Кбит/сек
Программа кодирования : VirtualDubMod 1.5.10.3 | www.virtualdub-fr.org || (build 2550/release)
Библиотека кодирования : VirtualDubMod build 2550/release

Видео
Идентификатор : 0
Формат : MPEG-4 Visual
Профиль формата : Advanced Simple@L5
Параметр BVOP формата : 2
Параметр QPel формата : Нет
Параметр GMC формата : Без точки перехода
Параметр матрицы формата : Default (H.263)
Идентификатор кодека : XVID
Идентификатор кодека/Подсказка : XviD
Продолжительность : 36 м. 4 с.
Битрейт : 1499 Кбит/сек
Ширина : 720 пикселей
Высота : 400 пикселей
Соотношение сторон : 16:9
Частота кадров : 25,000 кадров/сек
Цветовое пространство : YUV
Субдискретизация насыщенности : 4:2:0
Битовая глубина : 8 бит
Тип развёртки : Прогрессивная
Метод сжатия : С потерями
Бит/(Пиксели*Кадры) : 0.208
Размер потока : 387 Мбайт (92%)
Библиотека кодирования : XviD 1.2.1 (UTC 2008-12-04)

Аудио
Идентификатор : 1
Формат : MPEG Audio
Версия формата : Version 1
Профиль формата : Layer 3
Режим : Joint stereo
Расширение режима : MS Stereo
Идентификатор кодека : 55
Идентификатор кодека/Подсказка : MP3
Продолжительность : 36 м. 4 с.
Вид битрейта : Постоянный
Битрейт : 128 Кбит/сек
Каналы : 2 канала
Частота : 48,0 КГц
Метод сжатия : С потерями
Размер потока : 33,0 Мбайт (8%)
Выравнивание : Соединение по промежуткам
Продолжительность промежутка : 40 мс. (1,00 видеокадр)
Время предзагрузки промежутка : 504 мс.
Библиотека кодирования : LAME3.99r
Настройки программы : -m j -V 4 -q 9 -lowpass 17 -b 128

Выпуск 08 от 18.03.2016:

Пострадал от недобросовестных соседей актер Михаил Богдасаров, которому требуется срочный ремонт в комнате сына. В квартире этажом выше прорвала труба отопительной системы, протечка повредила отделку и мебель, а компенсация, предложенная виновником, совершенно не соответствует действительности и не покрывает расходы на ремонт. Исправить положение и примирить разногласия спешит ремонт по-честному 18.03.2017г., всегда находящий выход из самых сложных и нестандартных ситуаций. Главный герой проекта, легко справляющийся с проблемами и злодеями на экране, в реальной жизни стал жертвой и не сумел самостоятельно разрешить конфликт. Только профессионалам удастся подобрать оптимальные решения и возможность реализации конструктивных проблем.

Специалисты знают, как грамотно оформить необходимую подтверждающую документацию и справедливо наказать виновных, готовы помочь семейству Богдасаровых и создать интерьер для любимого сына. Комната давно нуждалась в переменах, однако, предыдущий негативный опыт в ремонтных работах наложил неприятный отпечаток на всю жизнь главного героя проекта. Хозяева полностью доверяют ведущим честного ремонта и готовы на любые эксперименты.

Сам владелиц мечтает о помещении, подходящем для отдыха и творчества, с функционалом небольшой студии и гостиной. Все члены семьи единогласны в своих предпочтениях, пространство необходимо грамотно наполнить практичностью и многофункциональностью, создать удобный интерьер на все случаи жизни. Однако, сын, проживающий в комнате, требует личного пространства, индивидуально собственным желаниям и творческим идеям.

Примирить семейные разногласия и создать максимально комфортный интерьер с неограниченным потенциалом смогут дизайнеры, качественно реализовав все требования каждого домочадца. Сложную неординарную задачу решат при помощи зонирования, в центральной части помещения установят диван, в эркере организуют некую «зеленую зону» с камином и местом для уединения.

Увеличить площадь помещения и воплотить в реальность главную мечту сына позволит балкон, который присоединят и, в образовавшемся пространстве, обустроят рабочий кабинет. Рядом разместят ударную установку с профессиональной звукоизоляцией и акустической системой. В дополнение, дизайнеры особое внимание уделят подсветке и подберут текстиль. Комната выполниться в теплых мягких оттенках, наполниться уютом и теплом домашнего очага.

MediaInfo:


Общее
Полное имя : D:\Films\Ремонт по-честному (2017) (Torrents43.com)\08. Remont.po.chestnomu.18.03.2017.avi
Формат : AVI
Формат/Информация : Audio Video Interleave
Размер файла : 393 Мбайт
Продолжительность : 35 м. 43 с.
Общий поток : 1539 Кбит/сек
Программа кодирования : VirtualDubMod 1.5.10.3 | www.virtualdub-fr.org || (build 2550/release)
Библиотека кодирования : VirtualDubMod build 2550/release

Видео
Идентификатор : 0
Формат : MPEG-4 Visual
Профиль формата : Advanced Simple@L5
Параметр BVOP формата : 2
Параметр QPel формата : Нет
Параметр GMC формата : Без точки перехода
Параметр матрицы формата : Default (H.263)
Идентификатор кодека : XVID
Идентификатор кодека/Подсказка : XviD
Продолжительность : 35 м. 43 с.
Битрейт : 1401 Кбит/сек
Ширина : 720 пикселей
Высота : 400 пикселей
Соотношение сторон : 16:9
Частота кадров : 25,000 кадров/сек
Цветовое пространство : YUV
Субдискретизация насыщенности : 4:2:0
Битовая глубина : 8 бит
Тип развёртки : Прогрессивная
Метод сжатия : С потерями
Бит/(Пиксели*Кадры) : 0.195
Размер потока : 358 Мбайт (91%)
Библиотека кодирования : XviD 1.2.1 (UTC 2008-12-04)

Аудио
Идентификатор : 1
Формат : AC-3
Формат/Информация : Audio Coding 3
Параметр Endianness формата : Big
Идентификатор кодека : 2000
Продолжительность : 35 м. 43 с.
Вид битрейта : Постоянный
Битрейт : 128 Кбит/сек
Каналы : 2 канала
Расположение каналов : Front: L R
Частота : 48,0 КГц
Частота кадров : 31,250 кадров/сек (1536 spf)
Битовая глубина : 16 бит
Метод сжатия : С потерями
Размер потока : 32,7 Мбайт (8%)
Выравнивание : Разделение по промежуткам
Продолжительность промежутка : 40 мс. (1,00 видеокадр)
Время предзагрузки промежутка : 500 мс.
ServiceKind/String : Complete Main

Выпуск 09 от 25.03.2016:

"Ремонт по-честному" делает ремонт в квартире тёщи Романа Мадянова.

MediaInfo:


Общее
Полное имя : D:\Films\Ремонт по-честному (2017) (Torrents43.com)\09. Remont.po.chestnomu.25.03.2017.avi
Формат : AVI
Формат/Информация : Audio Video Interleave
Размер файла : 401 Мбайт
Продолжительность : 36 м. 30 с.
Общий поток : 1537 Кбит/сек
Программа кодирования : VirtualDubMod 1.5.10.3 | www.virtualdub-fr.org || (build 2550/release)
Библиотека кодирования : VirtualDubMod build 2550/release

Видео
Идентификатор : 0
Формат : MPEG-4 Visual
Профиль формата : Advanced Simple@L5
Параметр BVOP формата : 2
Параметр QPel формата : Нет
Параметр GMC формата : Без точки перехода
Параметр матрицы формата : Default (H.263)
Идентификатор кодека : XVID
Идентификатор кодека/Подсказка : XviD
Продолжительность : 36 м. 30 с.
Битрейт : 1399 Кбит/сек
Ширина : 720 пикселей
Высота : 400 пикселей
Соотношение сторон : 16:9
Частота кадров : 25,000 кадров/сек
Цветовое пространство : YUV
Субдискретизация насыщенности : 4:2:0
Битовая глубина : 8 бит
Тип развёртки : Прогрессивная
Метод сжатия : С потерями
Бит/(Пиксели*Кадры) : 0.194
Размер потока : 365 Мбайт (91%)
Библиотека кодирования : XviD 1.2.1 (UTC 2008-12-04)

Аудио
Идентификатор : 1
Формат : MPEG Audio
Версия формата : Version 1
Профиль формата : Layer 3
Режим : Joint stereo
Расширение режима : MS Stereo
Идентификатор кодека : 55
Идентификатор кодека/Подсказка : MP3
Продолжительность : 36 м. 30 с.
Вид битрейта : Постоянный
Битрейт : 128 Кбит/сек
Каналы : 2 канала
Частота : 48,0 КГц
Метод сжатия : С потерями
Размер потока : 33,4 Мбайт (8%)
Выравнивание : Соединение по промежуткам
Продолжительность промежутка : 40 мс. (1,00 видеокадр)
Время предзагрузки промежутка : 504 мс.
Библиотека кодирования : LAME3.99r
Настройки программы : -m j -V 4 -q 9 -lowpass 17 -b 128

Выпуск 10 от 01.04.2016:

Синема гостиная для семьи Дениса Шведова

MediaInfo:


Общее
Полное имя : D:\Films\Ремонт по-честному (2017) (Torrents43.com)\10. Remont.po.chestnomu.01.04.2017.avi
Формат : AVI
Формат/Информация : Audio Video Interleave
Размер файла : 414 Мбайт
Продолжительность : 35 м. 22 с.
Общий поток : 1638 Кбит/сек
Программа кодирования : VirtualDubMod 1.5.10.3 | www.virtualdub-fr.org || (build 2550/release)
Библиотека кодирования : VirtualDubMod build 2550/release

Видео
Идентификатор : 0
Формат : MPEG-4 Visual
Профиль формата : Advanced Simple@L5
Параметр BVOP формата : 2
Параметр QPel формата : Нет
Параметр GMC формата : Без точки перехода
Параметр матрицы формата : Default (H.263)
Идентификатор кодека : XVID
Идентификатор кодека/Подсказка : XviD
Продолжительность : 35 м. 22 с.
Битрейт : 1500 Кбит/сек
Ширина : 720 пикселей
Высота : 400 пикселей
Соотношение сторон : 16:9
Частота кадров : 25,000 кадров/сек
Цветовое пространство : YUV
Субдискретизация насыщенности : 4:2:0
Битовая глубина : 8 бит
Тип развёртки : Прогрессивная
Метод сжатия : С потерями
Бит/(Пиксели*Кадры) : 0.208
Размер потока : 379 Мбайт (92%)
Библиотека кодирования : XviD 1.2.1 (UTC 2008-12-04)

Аудио
Идентификатор : 1
Формат : MPEG Audio
Версия формата : Version 1
Профиль формата : Layer 3
Режим : Joint stereo
Расширение режима : MS Stereo
Идентификатор кодека : 55
Идентификатор кодека/Подсказка : MP3
Продолжительность : 35 м. 22 с.
Вид битрейта : Постоянный
Битрейт : 128 Кбит/сек
Каналы : 2 канала
Частота : 48,0 КГц
Метод сжатия : С потерями
Размер потока : 32,4 Мбайт (8%)
Выравнивание : Соединение по промежуткам
Продолжительность промежутка : 40 мс. (1,00 видеокадр)
Время предзагрузки промежутка : 504 мс.
Библиотека кодирования : LAME3.99r
Настройки программы : -m j -V 4 -q 9 -lowpass 17 -b 128

Выпуск 11 от 08.04.2016:

Родовое гнездо в английском стиле для актера Антона Богданова

MediaInfo:


Общее
Полное имя : D:\Films\Ремонт по-честному (2017) (Torrents43.com)\11. Remont.po.chestnomu.08.04.2017.avi
Формат : AVI
Формат/Информация : Audio Video Interleave
Размер файла : 424 Мбайт
Продолжительность : 36 м. 15 с.
Общий поток : 1637 Кбит/сек
Программа кодирования : VirtualDubMod 1.5.10.3 | www.virtualdub-fr.org || (build 2550/release)
Библиотека кодирования : VirtualDubMod build 2550/release

Видео
Идентификатор : 0
Формат : MPEG-4 Visual
Профиль формата : Advanced Simple@L5
Параметр BVOP формата : 2
Параметр QPel формата : Нет
Параметр GMC формата : Без точки перехода
Параметр матрицы формата : Default (H.263)
Идентификатор кодека : XVID
Идентификатор кодека/Подсказка : XviD
Продолжительность : 36 м. 15 с.
Битрейт : 1499 Кбит/сек
Ширина : 720 пикселей
Высота : 400 пикселей
Соотношение сторон : 16:9
Частота кадров : 25,000 кадров/сек
Цветовое пространство : YUV
Субдискретизация насыщенности : 4:2:0
Битовая глубина : 8 бит
Тип развёртки : Прогрессивная
Метод сжатия : С потерями
Бит/(Пиксели*Кадры) : 0.208
Размер потока : 389 Мбайт (92%)
Библиотека кодирования : XviD 1.2.1 (UTC 2008-12-04)

Аудио
Идентификатор : 1
Формат : AC-3
Формат/Информация : Audio Coding 3
Параметр Endianness формата : Big
Идентификатор кодека : 2000
Продолжительность : 36 м. 15 с.
Вид битрейта : Постоянный
Битрейт : 128 Кбит/сек
Каналы : 2 канала
Расположение каналов : Front: L R
Частота : 48,0 КГц
Частота кадров : 31,250 кадров/сек (1536 spf)
Битовая глубина : 16 бит
Метод сжатия : С потерями
Размер потока : 33,2 Мбайт (8%)
Выравнивание : Разделение по промежуткам
Продолжительность промежутка : 40 мс. (1,00 видеокадр)
Время предзагрузки промежутка : 500 мс.
ServiceKind/String : Complete Main

Выпуск 12 от 15.04.2016:

Классика для актрисы Марии Кравченко

MediaInfo:


Общее
Полное имя : D:\Films\Ремонт по-честному (2017) (Torrents43.com)\12. Remont.po.chestnomu.15.04.2017.avi
Формат : AVI
Формат/Информация : Audio Video Interleave
Размер файла : 498 Мбайт
Продолжительность : 34 м. 46 с.
Общий поток : 2001 Кбит/сек
Программа кодирования : VirtualDubMod 1.5.10.3 | www.virtualdub-fr.org || (build 2550/release)
Библиотека кодирования : VirtualDubMod build 2550/release

Видео
Идентификатор : 0
Формат : MPEG-4 Visual
Профиль формата : Advanced Simple@L5
Параметр BVOP формата : 2
Параметр QPel формата : Нет
Параметр GMC формата : Без точки перехода
Параметр матрицы формата : Default (H.263)
Идентификатор кодека : XVID
Идентификатор кодека/Подсказка : XviD
Продолжительность : 34 м. 46 с.
Битрейт : 1800 Кбит/сек
Ширина : 704 пикселя
Высота : 448 пикселей
Соотношение сторон : 16:10
Частота кадров : 25,000 кадров/сек
Цветовое пространство : YUV
Субдискретизация насыщенности : 4:2:0
Битовая глубина : 8 бит
Тип развёртки : Прогрессивная
Метод сжатия : С потерями
Бит/(Пиксели*Кадры) : 0.228
Размер потока : 448 Мбайт (90%)
Библиотека кодирования : XviD 1.2.1 (UTC 2008-12-04)

Аудио
Идентификатор : 1
Формат : MPEG Audio
Версия формата : Version 1
Профиль формата : Layer 3
Режим : Joint stereo
Расширение режима : MS Stereo
Идентификатор кодека : 55
Идентификатор кодека/Подсказка : MP3
Продолжительность : 34 м. 46 с.
Вид битрейта : Постоянный
Битрейт : 192 Кбит/сек
Каналы : 2 канала
Частота : 48,0 КГц
Метод сжатия : С потерями
Размер потока : 47,7 Мбайт (10%)
Выравнивание : Соединение по промежуткам
Продолжительность промежутка : 40 мс. (1,00 видеокадр)
Время предзагрузки промежутка : 504 мс.
Библиотека кодирования : LAME3.99r
Настройки программы : -m j -V 4 -q 9 -lowpass 18.6 -b 192

Выпуск 13 от 22.04.2016:

Сказка для детей иллюзиониста Сафронова

MediaInfo:


Общее
Полное имя : D:\Films\Ремонт по-честному (2017) (Torrents43.com)\13. Remont.po.chestnomu.22.04.2017.avi
Формат : AVI
Формат/Информация : Audio Video Interleave
Размер файла : 456 Мбайт
Продолжительность : 34 м. 41 с.
Общий поток : 1837 Кбит/сек
Программа кодирования : VirtualDubMod 1.5.10.3 | www.virtualdub-fr.org || (build 2550/release)
Библиотека кодирования : VirtualDubMod build 2550/release

Видео
Идентификатор : 0
Формат : MPEG-4 Visual
Профиль формата : Advanced Simple@L5
Параметр BVOP формата : 2
Параметр QPel формата : Нет
Параметр GMC формата : Без точки перехода
Параметр матрицы формата : Default (H.263)
Идентификатор кодека : XVID
Идентификатор кодека/Подсказка : XviD
Продолжительность : 34 м. 41 с.
Битрейт : 1699 Кбит/сек
Ширина : 704 пикселя
Высота : 448 пикселей
Соотношение сторон : 16:10
Частота кадров : 25,000 кадров/сек
Цветовое пространство : YUV
Субдискретизация насыщенности : 4:2:0
Битовая глубина : 8 бит
Тип развёртки : Прогрессивная
Метод сжатия : С потерями
Бит/(Пиксели*Кадры) : 0.215
Размер потока : 422 Мбайт (92%)
Библиотека кодирования : XviD 1.2.1 (UTC 2008-12-04)

Аудио
Идентификатор : 1
Формат : AC-3
Формат/Информация : Audio Coding 3
Параметр Endianness формата : Big
Идентификатор кодека : 2000
Продолжительность : 34 м. 41 с.
Вид битрейта : Постоянный
Битрейт : 128 Кбит/сек
Каналы : 2 канала
Расположение каналов : Front: L R
Частота : 48,0 КГц
Частота кадров : 31,250 кадров/сек (1536 spf)
Битовая глубина : 16 бит
Метод сжатия : С потерями
Размер потока : 31,8 Мбайт (7%)
Выравнивание : Разделение по промежуткам
Продолжительность промежутка : 40 мс. (1,00 видеокадр)
Время предзагрузки промежутка : 500 мс.
ServiceKind/String : Complete Main

Выпуск 14 от 29.04.2016:

Лофт для актёра Сергея Белоголовцева

MediaInfo:


Общее
Полное имя : D:\Films\Ремонт по-честному (2017) (Torrents43.com)\14. Remont.po.chestnomu.29.04.2017.avi
Формат : AVI
Формат/Информация : Audio Video Interleave
Размер файла : 470 Мбайт
Продолжительность : 35 м. 48 с.
Общий поток : 1836 Кбит/сек
Программа кодирования : VirtualDubMod 1.5.10.3 | www.virtualdub-fr.org || (build 2550/release)
Библиотека кодирования : VirtualDubMod build 2550/release

Видео
Идентификатор : 0
Формат : MPEG-4 Visual
Профиль формата : Advanced Simple@L5
Параметр BVOP формата : 2
Параметр QPel формата : Нет
Параметр GMC формата : Без точки перехода
Параметр матрицы формата : Default (H.263)
Идентификатор кодека : XVID
Идентификатор кодека/Подсказка : XviD
Продолжительность : 35 м. 48 с.
Битрейт : 1698 Кбит/сек
Ширина : 720 пикселей
Высота : 400 пикселей
Соотношение сторон : 16:9
Частота кадров : 25,000 кадров/сек
Цветовое пространство : YUV
Субдискретизация насыщенности : 4:2:0
Битовая глубина : 8 бит
Тип развёртки : Прогрессивная
Метод сжатия : С потерями
Бит/(Пиксели*Кадры) : 0.236
Размер потока : 435 Мбайт (92%)
Библиотека кодирования : XviD 1.2.1 (UTC 2008-12-04)

Аудио
Идентификатор : 1
Формат : AC-3
Формат/Информация : Audio Coding 3
Параметр Endianness формата : Big
Идентификатор кодека : 2000
Продолжительность : 35 м. 48 с.
Вид битрейта : Постоянный
Битрейт : 128 Кбит/сек
Каналы : 2 канала
Расположение каналов : Front: L R
Частота : 48,0 КГц
Частота кадров : 31,250 кадров/сек (1536 spf)
Битовая глубина : 16 бит
Метод сжатия : С потерями
Размер потока : 32,8 Мбайт (7%)
Выравнивание : Разделение по промежуткам
Продолжительность промежутка : 40 мс. (1,00 видеокадр)
Время предзагрузки промежутка : 500 мс.
ServiceKind/String : Complete Main

Выпуск 15 от 06.05.2016:

Кошкин дом для Натальи Гулькиной

MediaInfo:


Общее
Полное имя : D:\Films\Ремонт по-честному (2017) (Torrents43.com)\15. Remont.po.chestnomu.06.05.2017.avi
Формат : AVI
Формат/Информация : Audio Video Interleave
Размер файла : 539 Мбайт
Продолжительность : 37 м. 39 с.
Общий поток : 2002 Кбит/сек
Программа кодирования : VirtualDubMod 1.5.10.3 | www.virtualdub-fr.org || (build 2550/release)
Библиотека кодирования : VirtualDubMod build 2550/release

Видео
Идентификатор : 0
Формат : MPEG-4 Visual
Профиль формата : Advanced Simple@L5
Параметр BVOP формата : 2
Параметр QPel формата : Нет
Параметр GMC формата : Без точки перехода
Параметр матрицы формата : Default (H.263)
Идентификатор кодека : XVID
Идентификатор кодека/Подсказка : XviD
Продолжительность : 37 м. 39 с.
Битрейт : 1800 Кбит/сек
Ширина : 704 пикселя
Высота : 448 пикселей
Соотношение сторон : 16:10
Частота кадров : 25,000 кадров/сек
Цветовое пространство : YUV
Субдискретизация насыщенности : 4:2:0
Битовая глубина : 8 бит
Тип развёртки : Прогрессивная
Метод сжатия : С потерями
Бит/(Пиксели*Кадры) : 0.228
Размер потока : 485 Мбайт (90%)
Библиотека кодирования : XviD 1.2.1 (UTC 2008-12-04)

Аудио
Идентификатор : 1
Формат : MPEG Audio
Версия формата : Version 1
Профиль формата : Layer 3
Режим : Joint stereo
Расширение режима : MS Stereo
Идентификатор кодека : 55
Идентификатор кодека/Подсказка : MP3
Продолжительность : 37 м. 39 с.
Вид битрейта : Постоянный
Битрейт : 192 Кбит/сек
Каналы : 2 канала
Частота : 48,0 КГц
Метод сжатия : С потерями
Размер потока : 51,7 Мбайт (10%)
Выравнивание : Соединение по промежуткам
Продолжительность промежутка : 40 мс. (1,00 видеокадр)
Время предзагрузки промежутка : 504 мс.
Библиотека кодирования : LAME3.99r
Настройки программы : -m j -V 4 -q 9 -lowpass 18.6 -b 192

Выпуск 16 от 13.05.2016:

Детская комната вместо собачьей конуры

MediaInfo:


Общее
Полное имя : D:\Films\Ремонт по-честному (2017) (Torrents43.com)\16. Remont.po.chestnomu.13.05.2017.avi
Формат : AVI
Формат/Информация : Audio Video Interleave
Размер файла : 431 Мбайт
Продолжительность : 33 м. 42 с.
Общий поток : 1786 Кбит/сек
Программа кодирования : VirtualDubMod 1.5.10.3 | www.virtualdub-fr.org || (build 2550/release)
Библиотека кодирования : VirtualDubMod build 2550/release

Видео
Идентификатор : 0
Формат : MPEG-4 Visual
Профиль формата : Advanced Simple@L5
Параметр BVOP формата : 2
Параметр QPel формата : Нет
Параметр GMC формата : Без точки перехода
Параметр матрицы формата : Default (H.263)
Идентификатор кодека : XVID
Идентификатор кодека/Подсказка : XviD
Продолжительность : 33 м. 42 с.
Битрейт : 1648 Кбит/сек
Ширина : 704 пикселя
Высота : 448 пикселей
Соотношение сторон : 16:10
Частота кадров : 25,000 кадров/сек
Цветовое пространство : YUV
Субдискретизация насыщенности : 4:2:0
Битовая глубина : 8 бит
Тип развёртки : Прогрессивная
Метод сжатия : С потерями
Бит/(Пиксели*Кадры) : 0.209
Размер потока : 397 Мбайт (92%)
Библиотека кодирования : XviD 1.2.1 (UTC 2008-12-04)

Аудио
Идентификатор : 1
Формат : MPEG Audio
Версия формата : Version 1
Профиль формата : Layer 3
Режим : Joint stereo
Расширение режима : MS Stereo
Идентификатор кодека : 55
Идентификатор кодека/Подсказка : MP3
Продолжительность : 33 м. 42 с.
Вид битрейта : Постоянный
Битрейт : 128 Кбит/сек
Каналы : 2 канала
Частота : 48,0 КГц
Метод сжатия : С потерями
Размер потока : 30,9 Мбайт (7%)
Выравнивание : Соединение по промежуткам
Продолжительность промежутка : 40 мс. (1,00 видеокадр)
Время предзагрузки промежутка : 504 мс.
Библиотека кодирования : LAME3.99r
Настройки программы : -m j -V 4 -q 9 -lowpass 17 -b 128

Выпуск 17 от 20.05.2016:

Мужской клуб для Стаса Костюшкина

MediaInfo:


Общее
Полное имя : D:\Films\Ремонт по-честному (2017) (Torrents43.com)\17. Remont.po.chestnomu.20.05.2017.avi
Формат : AVI
Формат/Информация : Audio Video Interleave
Размер файла : 483 Мбайт
Продолжительность : 34 м. 52 с.
Общий поток : 1937 Кбит/сек
Программа кодирования : VirtualDubMod 1.5.10.3 | www.virtualdub-fr.org || (build 2550/release)
Библиотека кодирования : VirtualDubMod build 2550/release

Видео
Идентификатор : 0
Формат : MPEG-4 Visual
Профиль формата : Advanced Simple@L5
Параметр BVOP формата : 2
Параметр QPel формата : Нет
Параметр GMC формата : Без точки перехода
Параметр матрицы формата : Default (H.263)
Идентификатор кодека : XVID
Идентификатор кодека/Подсказка : XviD
Продолжительность : 34 м. 52 с.
Битрейт : 1799 Кбит/сек
Ширина : 704 пикселя
Высота : 448 пикселей
Соотношение сторон : 16:10
Частота кадров : 25,000 кадров/сек
Цветовое пространство : YUV
Субдискретизация насыщенности : 4:2:0
Битовая глубина : 8 бит
Тип развёртки : Прогрессивная
Метод сжатия : С потерями
Бит/(Пиксели*Кадры) : 0.228
Размер потока : 449 Мбайт (93%)
Библиотека кодирования : XviD 1.2.1 (UTC 2008-12-04)

Аудио
Идентификатор : 1
Формат : MPEG Audio
Версия формата : Version 1
Профиль формата : Layer 3
Режим : Joint stereo
Расширение режима : MS Stereo
Идентификатор кодека : 55
Идентификатор кодека/Подсказка : MP3
Продолжительность : 34 м. 52 с.
Вид битрейта : Постоянный
Битрейт : 128 Кбит/сек
Каналы : 2 канала
Частота : 48,0 КГц
Метод сжатия : С потерями
Размер потока : 31,9 Мбайт (7%)
Выравнивание : Соединение по промежуткам
Продолжительность промежутка : 40 мс. (1,00 видеокадр)
Время предзагрузки промежутка : 504 мс.
Библиотека кодирования : LAME3.99r
Настройки программы : -m j -V 4 -q 9 -lowpass 17 -b 128

Выпуск 18 от 27.05.2016:

Холостяцкая студия в стиле Лофт

MediaInfo:


Общее
Полное имя : D:\Films\Ремонт по-честному (2017) (Torrents43.com)\18. Remont.po.chestnomu.27.05.2017.avi
Формат : AVI
Формат/Информация : Audio Video Interleave
Размер файла : 444 Мбайт
Продолжительность : 33 м. 46 с.
Общий поток : 1837 Кбит/сек
Программа кодирования : VirtualDubMod 1.5.10.3 | www.virtualdub-fr.org || (build 2550/release)
Библиотека кодирования : VirtualDubMod build 2550/release

Видео
Идентификатор : 0
Формат : MPEG-4 Visual
Профиль формата : Advanced Simple@L5
Параметр BVOP формата : 2
Параметр QPel формата : Нет
Параметр GMC формата : Без точки перехода
Параметр матрицы формата : Default (H.263)
Идентификатор кодека : XVID
Идентификатор кодека/Подсказка : XviD
Продолжительность : 33 м. 46 с.
Битрейт : 1699 Кбит/сек
Ширина : 704 пикселя
Высота : 448 пикселей
Соотношение сторон : 16:10
Частота кадров : 25,000 кадров/сек
Цветовое пространство : YUV
Субдискретизация насыщенности : 4:2:0
Битовая глубина : 8 бит
Тип развёртки : Прогрессивная
Метод сжатия : С потерями
Бит/(Пиксели*Кадры) : 0.215
Размер потока : 410 Мбайт (93%)
Библиотека кодирования : XviD 1.2.1 (UTC 2008-12-04)

Аудио
Идентификатор : 1
Формат : MPEG Audio
Версия формата : Version 1
Профиль формата : Layer 3
Режим : Joint stereo
Расширение режима : MS Stereo
Идентификатор кодека : 55
Идентификатор кодека/Подсказка : MP3
Продолжительность : 33 м. 46 с.
Вид битрейта : Постоянный
Битрейт : 128 Кбит/сек
Каналы : 2 канала
Частота : 48,0 КГц
Метод сжатия : С потерями
Размер потока : 30,9 Мбайт (7%)
Выравнивание : Соединение по промежуткам
Продолжительность промежутка : 40 мс. (1,00 видеокадр)
Время предзагрузки промежутка : 504 мс.
Библиотека кодирования : LAME3.99r
Настройки программы : -m j -V 4 -q 9 -lowpass 17 -b 128

Выпуск 19 от 03.06.2016:

Гостиная ФЬЮЖН для семьи Смирновых

MediaInfo:


Общее
Полное имя : D:\Films\Ремонт по-честному (2017) (Torrents43.com)\19. Remont.po.chestnomu.03.06.2017.avi
Формат : AVI
Формат/Информация : Audio Video Interleave
Размер файла : 505 Мбайт
Продолжительность : 35 м. 15 с.
Общий поток : 2002 Кбит/сек
Программа кодирования : VirtualDubMod 1.5.10.3 | www.virtualdub-fr.org || (build 2550/release)
Библиотека кодирования : VirtualDubMod build 2550/release

Видео
Идентификатор : 0
Формат : MPEG-4 Visual
Профиль формата : Advanced Simple@L5
Параметр BVOP формата : 2
Параметр QPel формата : Нет
Параметр GMC формата : Без точки перехода
Параметр матрицы формата : Default (H.263)
Идентификатор кодека : XVID
Идентификатор кодека/Подсказка : XviD
Продолжительность : 35 м. 15 с.
Битрейт : 1800 Кбит/сек
Ширина : 704 пикселя
Высота : 448 пикселей
Соотношение сторон : 16:10
Частота кадров : 25,000 кадров/сек
Цветовое пространство : YUV
Субдискретизация насыщенности : 4:2:0
Битовая глубина : 8 бит
Тип развёртки : Прогрессивная
Метод сжатия : С потерями
Бит/(Пиксели*Кадры) : 0.228
Размер потока : 454 Мбайт (90%)
Библиотека кодирования : XviD 1.2.1 (UTC 2008-12-04)

Аудио
Идентификатор : 1
Формат : MPEG Audio
Версия формата : Version 1
Профиль формата : Layer 3
Режим : Joint stereo
Расширение режима : MS Stereo
Идентификатор кодека : 55
Идентификатор кодека/Подсказка : MP3
Продолжительность : 35 м. 15 с.
Вид битрейта : Постоянный
Битрейт : 192 Кбит/сек
Каналы : 2 канала
Частота : 48,0 КГц
Метод сжатия : С потерями
Размер потока : 48,4 Мбайт (10%)
Выравнивание : Соединение по промежуткам
Продолжительность промежутка : 40 мс. (1,00 видеокадр)
Время предзагрузки промежутка : 504 мс.
Библиотека кодирования : LAME3.99r
Настройки программы : -m j -V 4 -q 9 -lowpass 18.6 -b 192

Выпуск 20 от 10.06.2016:

Зонированная гостиная для многодетной семьи

MediaInfo:


Общее
Полное имя : D:\Films\Ремонт по-честному (2017) (Torrents43.com)\20. Remont.po.chestnomu.10.06.2017.avi
Формат : AVI
Формат/Информация : Audio Video Interleave
Размер файла : 475 Мбайт
Продолжительность : 36 м. 7 с.
Общий поток : 1837 Кбит/сек
Программа кодирования : VirtualDubMod 1.5.10.3 | www.virtualdub-fr.org || (build 2550/release)
Библиотека кодирования : VirtualDubMod build 2550/release

Видео
Идентификатор : 0
Формат : MPEG-4 Visual
Профиль формата : Advanced Simple@L5
Параметр BVOP формата : 2
Параметр QPel формата : Нет
Параметр GMC формата : Без точки перехода
Параметр матрицы формата : Default (H.263)
Идентификатор кодека : XVID
Идентификатор кодека/Подсказка : XviD
Продолжительность : 36 м. 7 с.
Битрейт : 1699 Кбит/сек
Ширина : 720 пикселей
Высота : 400 пикселей
Соотношение сторон : 16:9
Частота кадров : 25,000 кадров/сек
Цветовое пространство : YUV
Субдискретизация насыщенности : 4:2:0
Битовая глубина : 8 бит
Тип развёртки : Прогрессивная
Метод сжатия : С потерями
Бит/(Пиксели*Кадры) : 0.236
Размер потока : 439 Мбайт (93%)
Библиотека кодирования : XviD 1.2.1 (UTC 2008-12-04)

Аудио
Идентификатор : 1
Формат : MPEG Audio
Версия формата : Version 1
Профиль формата : Layer 3
Режим : Joint stereo
Расширение режима : MS Stereo
Идентификатор кодека : 55
Идентификатор кодека/Подсказка : MP3
Продолжительность : 36 м. 7 с.
Вид битрейта : Постоянный
Битрейт : 128 Кбит/сек
Каналы : 2 канала
Частота : 48,0 КГц
Метод сжатия : С потерями
Размер потока : 33,1 Мбайт (7%)
Выравнивание : Соединение по промежуткам
Продолжительность промежутка : 40 мс. (1,00 видеокадр)
Время предзагрузки промежутка : 504 мс.
Библиотека кодирования : LAME3.99r
Настройки программы : -m j -V 4 -q 9 -lowpass 17 -b 128

Выпуск 21 от 17.06.2016:

Штаб на чердаке для детей Андрея Мерзликина

MediaInfo:


Общее
Полное имя : D:\Films\Ремонт по-честному (2017) (Torrents43.com)\21. Remont.po.chestnomu.17.06.2017.avi
Формат : AVI
Формат/Информация : Audio Video Interleave
Размер файла : 526 Мбайт
Продолжительность : 37 м. 58 с.
Общий поток : 1936 Кбит/сек
Программа кодирования : VirtualDubMod 1.5.10.3 | www.virtualdub-fr.org || (build 2550/release)
Библиотека кодирования : VirtualDubMod build 2550/release

Видео
Идентификатор : 0
Формат : MPEG-4 Visual
Профиль формата : Advanced Simple@L5
Параметр BVOP формата : 2
Параметр QPel формата : Нет
Параметр GMC формата : Без точки перехода
Параметр матрицы формата : Default (H.263)
Идентификатор кодека : XVID
Идентификатор кодека/Подсказка : XviD
Продолжительность : 37 м. 58 с.
Битрейт : 1799 Кбит/сек
Ширина : 704 пикселя
Высота : 448 пикселей
Соотношение сторон : 16:10
Частота кадров : 25,000 кадров/сек
Цветовое пространство : YUV
Субдискретизация насыщенности : 4:2:0
Битовая глубина : 8 бит
Тип развёртки : Прогрессивная
Метод сжатия : С потерями
Бит/(Пиксели*Кадры) : 0.228
Размер потока : 489 Мбайт (93%)
Библиотека кодирования : XviD 1.2.1 (UTC 2008-12-04)

Аудио
Идентификатор : 1
Формат : MPEG Audio
Версия формата : Version 1
Профиль формата : Layer 3
Режим : Joint stereo
Расширение режима : MS Stereo
Идентификатор кодека : 55
Идентификатор кодека/Подсказка : MP3
Продолжительность : 37 м. 58 с.
Вид битрейта : Постоянный
Битрейт : 128 Кбит/сек
Каналы : 2 канала
Частота : 48,0 КГц
Метод сжатия : С потерями
Размер потока : 34,8 Мбайт (7%)
Выравнивание : Соединение по промежуткам
Продолжительность промежутка : 40 мс. (1,00 видеокадр)
Время предзагрузки промежутка : 504 мс.
Библиотека кодирования : LAME3.99r
Настройки программы : -m j -V 4 -q 9 -lowpass 17 -b 128

Выпуск 22 от 24.06.2016:

Уютное гнёздышко для артистки Воробей

MediaInfo:


Общее
Полное имя : D:\Films\Ремонт по-честному (2017) (Torrents43.com)\22. Remont.po.chestnomu.24.06.2017.avi
Формат : AVI
Формат/Информация : Audio Video Interleave
Размер файла : 505 Мбайт
Продолжительность : 35 м. 14 с.
Общий поток : 2002 Кбит/сек
Программа кодирования : VirtualDubMod 1.5.10.3 | www.virtualdub-fr.org || (build 2550/release)
Библиотека кодирования : VirtualDubMod build 2550/release

Видео
Идентификатор : 0
Формат : MPEG-4 Visual
Профиль формата : Advanced Simple@L5
Параметр BVOP формата : 2
Параметр QPel формата : Нет
Параметр GMC формата : Без точки перехода
Параметр матрицы формата : Default (H.263)
Идентификатор кодека : XVID
Идентификатор кодека/Подсказка : XviD
Продолжительность : 35 м. 14 с.
Битрейт : 1800 Кбит/сек
Ширина : 704 пикселя
Высота : 448 пикселей
Соотношение сторон : 16:10
Частота кадров : 25,000 кадров/сек
Цветовое пространство : YUV
Субдискретизация насыщенности : 4:2:0
Битовая глубина : 8 бит
Тип развёртки : Прогрессивная
Метод сжатия : С потерями
Бит/(Пиксели*Кадры) : 0.228
Размер потока : 454 Мбайт (90%)
Библиотека кодирования : XviD 1.2.1 (UTC 2008-12-04)

Аудио
Идентификатор : 1
Формат : MPEG Audio
Версия формата : Version 1
Профиль формата : Layer 3
Режим : Joint stereo
Расширение режима : MS Stereo
Идентификатор кодека : 55
Идентификатор кодека/Подсказка : MP3
Продолжительность : 35 м. 14 с.
Вид битрейта : Постоянный
Битрейт : 192 Кбит/сек
Каналы : 2 канала
Частота : 48,0 КГц
Метод сжатия : С потерями
Размер потока : 48,4 Мбайт (10%)
Выравнивание : Соединение по промежуткам
Продолжительность промежутка : 40 мс. (1,00 видеокадр)
Время предзагрузки промежутка : 504 мс.
Библиотека кодирования : LAME3.99r
Настройки программы : -m j -V 4 -q 9 -lowpass 18.6 -b 192

Выпуск 23 от 01.07.2016:

Морская гостиная для сухопутного волка

MediaInfo:


Общее
Полное имя : D:\Films\Ремонт по-честному (2017) (Torrents43.com)\23. Remont.po.chestnomu.01.07.2017.avi
Формат : AVI
Формат/Информация : Audio Video Interleave
Размер файла : 440 Мбайт
Продолжительность : 30 м. 45 с.
Общий поток : 2002 Кбит/сек
Программа кодирования : VirtualDubMod 1.5.10.3 | www.virtualdub-fr.org || (build 2550/release)
Библиотека кодирования : VirtualDubMod build 2550/release

Видео
Идентификатор : 0
Формат : MPEG-4 Visual
Профиль формата : Advanced Simple@L5
Параметр BVOP формата : 2
Параметр QPel формата : Нет
Параметр GMC формата : Без точки перехода
Параметр матрицы формата : Default (H.263)
Идентификатор кодека : XVID
Идентификатор кодека/Подсказка : XviD
Продолжительность : 30 м. 45 с.
Битрейт : 1800 Кбит/сек
Ширина : 704 пикселя
Высота : 448 пикселей
Соотношение сторон : 16:10
Частота кадров : 25,000 кадров/сек
Цветовое пространство : YUV
Субдискретизация насыщенности : 4:2:0
Битовая глубина : 8 бит
Тип развёртки : Прогрессивная
Метод сжатия : С потерями
Бит/(Пиксели*Кадры) : 0.228
Размер потока : 396 Мбайт (90%)
Библиотека кодирования : XviD 1.2.1 (UTC 2008-12-04)

Аудио
Идентификатор : 1
Формат : MPEG Audio
Версия формата : Version 1
Профиль формата : Layer 3
Режим : Joint stereo
Расширение режима : MS Stereo
Идентификатор кодека : 55
Идентификатор кодека/Подсказка : MP3
Продолжительность : 30 м. 45 с.
Вид битрейта : Постоянный
Битрейт : 192 Кбит/сек
Каналы : 2 канала
Частота : 48,0 КГц
Метод сжатия : С потерями
Размер потока : 42,2 Мбайт (10%)
Выравнивание : Соединение по промежуткам
Продолжительность промежутка : 40 мс. (1,00 видеокадр)
Время предзагрузки промежутка : 504 мс.
Библиотека кодирования : LAME3.99r
Настройки программы : -m j -V 4 -q 9 -lowpass 18.6 -b 192
Скриншоты:

История обновлений:

26.03.2017 добавлены 4 выпуска (март)
06.04.2017 добавлены 5 выпусков (апрель)
27.05.2017 добавлены 4 выпуска (май)
25.06.2017 добавлены 4 выпуска (июнь)
29.07.2017 добавлен 1 выпуск (июль)

Раздача ведётся путём добавления новых файлов:

Раздача ведётся путём добавления новых файлов; при каждом добавлении создаётся новый торрент. Чтобы начать докачку новых файлов, пользователям необходимо сделать следующее:
(1) остановить скачивание,
(2) удалить старый торрент у себя из клиента (имеющиеся файлы удалять не надо),
(3) скачать новый торрент и запустить его у себя в клиенте вместо старого, при этом указать клиенту путь в старую папку, куда и должно происходить скачивание новых файлов.

Ваш клиент при этом должен произвести хеширование (проверку) старой папки (если не производит сам - помогите ему сделать это), и будет докачивать только те файлы, которых у вас ещё нет. Старые файлы при этом не удаляются, а продолжают раздаваться!

Eсли вы уже удалили старые файлы, то предотвратить повторную закачку старых файлов можно, отжав галочку в соответствующих местах при запуске нового торрента. По возможности, желательно не удалять старые файлы как можно дольше, чтобы релизёр не только продолжал раздавать старые файлы, а смог сконцентрироваться на новых.
29.07.2017 ТОРРЕНТ ОБНОВЛЁН, добавлен 1 выпуск

Детали торрента:
Название:РенТВ | Ремонт по-честному [23 выпуска] (2017) SATRip [Обновляемая]
Дата добавления:29 Июл 2017 10:19:29
Размер:10,3 GB
Раздают:7
Качают:0
Форум:Дизайн

All rights reserved © 2015-2018