TORRENTS43.COM

Скачать Артём Куприяненко | 3ds Max. Базовый курс архитектурной визуализации (2014) PCRec


Артём Куприяненко | 3ds Max. Базовый курс архитектурной визуализации (2014) PCRec
Автор (режиссер): Артём Куприяненко
Производство: CG INCUBATOR ACADEMY
Жанр: 3ds Max, 3D моделирование

Описание:
Курс позволит Вам в короткие сроки научиться создавать интерьеры и 3D модели.

В курсе мы будем изучать:
- моделирование предметов
- интерьерную и экстерьерную визуализации
- ренедриг и лайтинг в Corona Render
- постпродакшн в Photoshop и Fusion
- моделирование зданий
- сложное параметрическое моделирование

Продолжительность: 20:15:54
Качество видео: PCRec

Видео: WMV3, 994х720-1912x1080, ~6799 Kbps
Аудио: WMA, 2 ch, 192 Kbps, CBR

Mediainfo WMV:

Код: выделить все

General
Complete name                            : C:\Torrents\Куприяненко Артём - 3ds Max. Базовый курс архитектурной визуализации (2014)\03_CORONA_LIGHTING\01_corona_camera_setting.wmv
Format                                   : Windows Media
File size                                : 114 MiB
Duration                                 : 4mn 24s
Overall bit rate mode                    : Constant
Overall bit rate                         : 3 602 Kbps
Maximum Overall bit rate                 : 7 046 Kbps
Encoded date                             : UTC 2014-05-19 16:42:07.573
SfOriginalFPS                            : 250000

Video
ID                                       : 2
Format                                   : VC-1
Format profile                           : MP@HL
Codec ID                                 : WMV3
Codec ID/Info                            : Windows Media Video 9
Codec ID/Hint                            : WMV3
Description of the codec                 : Windows Media Video 9 - Professional
Duration                                 : 4mn 24s
Bit rate mode                            : Constant
Bit rate                                 : 6 799 Kbps
Width                                    : 1 440 pixels
Height                                   : 1 080 pixels
Display aspect ratio                     : 4:3
Frame rate                               : 25.000 fps
Color space                              : YUV
Chroma subsampling                       : 4:2:0
Bit depth                                : 8 bits
Scan type                                : Progressive
Compression mode                         : Lossy
Bits/(Pixel*Frame)                       : 0.175
Stream size                              : 214 MiB
Language                                 : Russian

Audio
ID                                       : 1
Format                                   : WMA
Format version                           : Version 2
Codec ID                                 : 161
Codec ID/Info                            : Windows Media Audio
Description of the codec                 : Windows Media Audio 9.2 - 192 kbps, 48 kHz, stereo (A/V) 1-pass CBR
Duration                                 : 4mn 24s
Bit rate mode                            : Constant
Bit rate                                 : 192 Kbps
Channel(s)                               : 2 channels
Sampling rate                            : 48.0 KHz
Bit depth                                : 16 bits
Stream size                              : 6.05 MiB (5%)
Language                                 : Russian

Mediainfo MP4:

Код: выделить все

General
Complete name                            : C:\Torrents\Куприяненко Артём - 3ds Max. Базовый курс архитектурной визуализации (2014)\01_Лекция №1\CG INCUBATOR 'Лекция 1'.mp4
Format                                   : MPEG-4
Format profile                           : Base Media / Version 2
Codec ID                                 : mp42
File size                                : 632 MiB
Duration                                 : 1h 22mn
Overall bit rate mode                    : Variable
Overall bit rate                         : 1 066 Kbps
Encoded date                             : UTC 2014-05-30 22:37:12
Tagged date                              : UTC 2014-05-30 22:37:12
gsst                                     : 0
gstd                                     : 4971160
gssd                                     : BADC21568MH1420920846328950
gshh                                     : r8---sn-3c27ln7s.googlevideo.com

Video
ID                                       : 1
Format                                   : AVC
Format/Info                              : Advanced Video Codec
Format profile                           : High@L3.1
Format settings, CABAC                   : Yes
Format settings, ReFrames                : 1 frame
Format settings, GOP                     : M=1, N=60
Codec ID                                 : avc1
Codec ID/Info                            : Advanced Video Coding
Duration                                 : 1h 22mn
Bit rate                                 : 919 Kbps
Maximum bit rate                         : 9 209 Kbps
Width                                    : 1 280 pixels
Height                                   : 720 pixels
Display aspect ratio                     : 16:9
Frame rate mode                          : Constant
Frame rate                               : 30.000 fps
Color space                              : YUV
Chroma subsampling                       : 4:2:0
Bit depth                                : 8 bits
Scan type                                : Progressive
Bits/(Pixel*Frame)                       : 0.033
Stream size                              : 545 MiB (86%)
Tagged date                              : UTC 2014-05-30 22:44:02

Audio
ID                                       : 2
Format                                   : AAC
Format/Info                              : Advanced Audio Codec
Format profile                           : LC
Codec ID                                 : 40
Duration                                 : 1h 22mn
Bit rate mode                            : Variable
Bit rate                                 : 144 Kbps
Maximum bit rate                         : 150 Kbps
Channel(s)                               : 1 channel
Channel positions                        : Front: C
Sampling rate                            : 44.1 KHz
Compression mode                         : Lossy
Stream size                              : 85.3 MiB (14%)
Title                                    : IsoMedia File Produced by Google, 5-11-2011
Encoded date                             : UTC 2014-05-30 22:41:27
Tagged date                              : UTC 2014-05-30 22:44:02
Скриншоты:


Детали торрента:
Название:Артём Куприяненко | 3ds Max. Базовый курс архитектурной визуализации (2014) PCRec
Дата добавления:18 Мар 2017 12:05:50
Размер:5,01 GB
Раздают:30
Качают:2
Форум:Дизайн

All rights reserved © 2015-2018