TORRENTS43.COM

Скачать Марк Бернес: звездная болезнь (2007) SATRip


Марк Бернес: звездная болезнь (2007) SATRip
Телекомпания: Россия 1
Жанр: Документальный, Телепередача

Участники: Людмила Гурченко (Народная артистка СССР), Яков Костюковский (сценарист), Михаил Горбачев (Президент СССР), Михаил Державин (Народный артист России), Евгений Евтушенко (поэт) и другие.

Описание:
В сентябре 1958 года в "Комсомольской правде" вышла статья "Звезда на Волге", в которой Марка Бернеса обвиняли в звездной болезни. Мол, зазнался он до такой степени, что когда его справедливо остановил инспектор ГАИ на Лубянской площади, актер накричал на него и уехал. Этот небольшой фельетон закрыл перед Бернесом двери концертных площадок и студий звукозаписи на 2 года. Его всю жизнь обвиняли в звездной болезни, и это - один из мифов, которыми во множестве был окружен Бернес. На самом же деле он был крайне закрытый человек, сторонился знакомых и поклонников. Существует также миф и о его многочисленных победах на любовном фронте, но и это не во всем соответствует действительности...

В Москву Бернес приехал из Харькова. Родители мечтали видеть сына бухгалтером и отдали его в торгово-промышленный техникум. Но он с пятнадцати лет бредил театром. Поэтому приехав в столицу, он прямо с вокзала отправился в два главных театра страны - Большой и Малый - и… сразу же получил работу в обоих. Так, отыграв молчаливого слугу в Малом, он успевал к третьему акту в Большой. Но самой большой любовью для него было кино. Он сразу стал всенародным любимцем. Наверное, все дело в особой душевности, которая была в его песнях. Существует легенда, что первый тираж пластинок с песней "Темная ночь" был списан в брак из-за того, что работницы студии звукозаписи плакали, слушая Бернеса. Якобы их слезы случайно попали на матрицу, с которой печатались диски. Даже руководство студии, узнав причину брака, не стало, несмотря на суровое военное время, наказывать чувствительных женщин... Его песни пела вся страна. Но никому не приходило в голову, что любимый певец не знает нот. Марк Бернес сыграл в 50 фильмах и сам срежиссировал собственные похороны. За неделю до смерти пригласил в больницу звукорежиссера и попросил записать на кассету три песни, в том числе "Журавли" - эта песня и звучала на его могиле во время похорон.

Продолжительность: 00:44:16
Качество видео: SATRip

Видео: H.264, 704x528, 25.00fps, 980 kbps
Аудио: MP3, 2 ch, 128 kbps

Mediainfo:


Общее
Полное имя : F:\M. Bernes\Марк Бернес. Звездная болезнь.avi
Формат : AVI
Формат/Информация : Audio Video Interleave
Размер файла : 355 Мбайт
Продолжительность : 44 м. 16 с.
Общий поток : 1122 Кбит/сек
Библиотека кодирования : VirtualDub build 30009/release

Видео
Идентификатор : 0
Формат : AVC
Формат/Информация : Advanced Video Codec
Профиль формата : High@L3.1
Параметр CABAC формата : Да
Параметр ReFrames формата : 8 кадров
Идентификатор кодека : H264
Продолжительность : 44 м. 16 с.
Битрейт : 980 Кбит/сек
Ширина : 704 пикселя
Высота : 528 пикселей
Соотношение сторон : 4:3
Частота кадров : 25,000 кадров/сек
Цветовое пространство : YUV
Субдискретизация насыщенности : 4:2:0
Битовая глубина : 8 бит
Тип развёртки : Прогрессивная
Бит/(Пиксели*Кадры) : 0.105
Размер потока : 312 Мбайт (88%)
Библиотека кодирования : x264 core 66 r1115bm 11863ac
Настройки программы : cabac=1 / ref=8 / deblock=1:0:0 / analyse=0x3:0x113 / me=umh / subme=6 / psy_rd=0.1:1.3 / mixed_ref=1 / me_range=32 / chroma_me=1 / trellis=1 / 8x8dct=1 / cqm=0 / deadzone=21,11 / chroma_qp_offset=-3 / threads=3 / thread_queue=3 / nr=0 / decimate=1 / mbaff=0 / bframes=3 / b_pyramid=1 / b_adapt=1 / b_bias=0 / direct=3 / wpredb=1 / keyint=350 / keyint_min=176 / scenecut=20(pre) / rc=abr / bitrate=980 / ratetol=20.0 / qcomp=0.60 / qpmin=10 / qpmax=51 / qpstep=4 / ip_ratio=1.00 / pb_ratio=1.40 / aq=1:1.00:0:10.00

Аудио
Идентификатор : 1
Формат : MPEG Audio
Версия формата : Version 1
Профиль формата : Layer 3
Режим : Joint stereo
Расширение режима : MS Stereo
Идентификатор кодека : 55
Идентификатор кодека/Подсказка : MP3
Продолжительность : 44 м. 16 с.
Вид битрейта : Постоянный
Битрейт : 128 Кбит/сек
Каналы : 2 канала
Частота : 48,0 КГц
Метод сжатия : С потерями
Задержка видео : 200 мс.
Размер потока : 40,5 Мбайт (11%)
Выравнивание : Разделение по промежуткам
Продолжительность промежутка : 40 мс. (1,00 видеокадр)
Время предзагрузки промежутка : 500 мс.

Дополнительная информация:

Спасибо за рип Lexor!
Скриншоты:


Все одноименные релизы в Клубе

Смотреть Online

http://moonwalk.cc/video/33c4f4b6970df2be491ca41df00b0c95/iframe
Детали торрента:
Название:Марк Бернес: звездная болезнь (2007) SATRip
Дата добавления:18 Мар 2017 14:53:13
Размер:355 MB
Раздают:1
Качают:0
Форум:Посвящение искусству

All rights reserved © 2015-2018