TORRENTS43.COM

Скачать Бесконечная поэзия / Poesia sin fin (Endless poetry) (2016) WEBRip [H.264/720p] [AVO]


Бесконечная поэзия / Poesia sin fin (Endless poetry) (2016) WEBRip
Производство: Чили, Япония, Франция, Великобритания, Le Pacte, Le Soleil Films
Жанр: Драма, Фэнтези, Эротика

Режиссер: Алехандро Ходоровски
Актеры: Адан Ходоровски, Бронтис Ходоровски, Леонардо Тауб, Памела Флорес, Алехандро Ходоровски, Херемиас Эрсковиц, Бастиан Боденхофер, Кэролин Карлсон

Описание:
Юный Алехандро переезжает в Чили, где находит свое призвание и становится поэтом. Здесь он освобождается ото всех оков, от своей семьи, от наставлений своего отца. Знакомится с молодыми поэтами и обретает музу.



Релиз от: BadBajo

Продолжительность: 02:07:42
Качество видео: WEBRip
Перевод: Любительский (одноголосый, закадровый) - BadBajo
Автор перевода: BadBajo
Субтитры: Отсутствуют
Реклама: Отсутствует

Видео: AVC/H.264, 1280х690, ~3108 Kbps
Аудио: AC3, 6 ch, 448 Kbps l Русский VO, BadBajo
Аудио: AC3, 6 ch, 448 Kbps l Испанский

Mediainfo:


Complete name : \Poesia_sin_fin_2016_rus_Badbajo.mkv
Format : Matroska
Format version : Version 4 / Version 2
File size : 3.64 GiB
Duration : 2 h 7 min
Overall bit rate : 4 076 kb/s
Encoded date : UTC 2017-03-19 15:42:41
Writing application : mkvmerge v9.5.0 ('Quiet Fire') 64bit
Writing library : libebml v1.3.4 + libmatroska v1.4.5
Cover : Yes
Attachments : cover.jpg

Video
ID : 1
Format : AVC
Format/Info : Advanced Video Codec
Format profile : High@L4.1
Format settings, CABAC : Yes
Format settings, ReFrames : 2 frames
Codec ID : V_MPEG4/ISO/AVC
Duration : 2 h 7 min
Bit rate : 3 178 kb/s
Width : 1 280 pixels
Height : 690 pixels
Display aspect ratio : 1.85:1
Frame rate mode : Constant
Frame rate : 24.000 FPS
Color space : YUV
Chroma subsampling : 4:2:0
Bit depth : 8 bits
Scan type : Progressive
Bits/(Pixel*Frame) : 0.150
Stream size : 2.84 GiB (78%)
Writing library : x264 core
Default : Yes
Forced : No
Color range : Limited
Color primaries : BT.709
Transfer characteristics : BT.709
Matrix coefficients : BT.709

Audio #1
ID : 2
Format : AC-3
Format/Info : Audio Coding 3
Mode extension : CM (complete main)
Format settings, Endianness : Big
Codec ID : A_AC3
Duration : 2 h 7 min
Bit rate mode : Constant
Bit rate : 448 kb/s
Channel(s) : 6 channels
Channel positions : Front: L C R, Side: L R, LFE
Sampling rate : 48.0 kHz
Frame rate : 31.250 FPS (1536 spf)
Compression mode : Lossy
Stream size : 410 MiB (11%)
Title : Poesia_sin_fin_2016_rus_Badbajo
Language : Russian
Default : Yes
Forced : Yes

Audio #2
ID : 3
Format : AC-3
Format/Info : Audio Coding 3
Mode extension : CM (complete main)
Format settings, Endianness : Big
Codec ID : A_AC3
Duration : 2 h 7 min
Bit rate mode : Constant
Bit rate : 448 kb/s
Channel(s) : 6 channels
Channel positions : Front: L C R, Side: L R, LFE
Sampling rate : 48.0 kHz
Frame rate : 31.250 FPS (1536 spf)
Compression mode : Lossy
Stream size : 410 MiB (11%)
Language : Spanish
Default : No
Forced : No

Дополнительная информация:

Великий латиноамериканский сюрреалист (родился в Чили в семье еврейских иммигрантов из России, режиссерскую карьеру сделал в Мексике). Снял около восьми фильмов за 50 с лишним лет. В «Поэзии» заняты двое его сыновей, Бронтис и Адан.
"Бесконечная поэзия", это продолжение фильма «Танец реальности» вышедшего в 2013-м году.
Скриншоты:


Все одноименные релизы в Клубе
Детали торрента:
Название:Бесконечная поэзия / Poesia sin fin (Endless poetry) (2016) WEBRip [H.264/720p] [AVO]
Дата добавления:19 Мар 2017 19:21:52
Размер:3,64 GB
Раздают:4
Качают:0
Форум:Авторское кино

All rights reserved © 2015-2018