TORRENTS43.COM

Скачать Джодха и Акбар: История великой любви / Jodha Akbar (2013-2014) WEB-DL [H.264] (серии 207-576 из 576) [MP4|1280x720]


Джодха и Акбар: История великой любви / Jodha Akbar (2013-2014) WEB-DL (серии 207-576 из 576)
Производство: Индия
Жанр: Драма

Режиссер: Santram Varma
Актеры: Навед Аслам, Кунал Бхатия, Четан Хансрадж, Ашвини Кхалсекар, Лавина Тандон, Паридхи Шарма, Анкит Райзада, Раджат Токас, Параг Тьяги, Маниша Ядав.

Описание:
Историческая и политическая мелодрама большой любви из шестнадцатого века между прекрасной принцессой Джодха являющейся индуской и управляющим династии моголов по прозвищу Великий. Акбар в городке Фатехпур-Сикри. Союз который был создан для примирения мусульман и индусов а в результате проявление неземной любви правителя и его наложницы принцессы дочери раджи Бхармал Амер.



Продолжительность: ~00:21:00
Качество видео: WEB-DL
Перевод: Многоголосый закадровый
Реклама: присутствует логотип TurkCinema

Видео: AVC/H.264, 1280x720, ~2569 kbps
Аудио: AAC, 2 ch, 128 kbps

MI 207-325


Общее
Полное имя : D:\Downloads\207 серия.mp4
Формат : MPEG-4
Профиль формата : Base Media
Идентификатор кодека : isom (isom/iso2/avc1/mp41)
Размер файла : 413 Мбайт
Продолжительность : 21 м. 26 с.
Общий поток : 2695 Кбит/сек
Программа кодирования : Lavf55.33.100

Видео
Идентификатор : 1
Формат : AVC
Формат/Информация : Advanced Video Codec
Профиль формата : High@L4
Параметр CABAC формата : Да
Параметр ReFrames формата : 4 кадра
Идентификатор кодека : avc1
Идентификатор кодека/Информация : Advanced Video Coding
Продолжительность : 21 м. 26 с.
Битрейт : 2569 Кбит/сек
Ширина : 1280 пикселей
Высота : 720 пикселей
Соотношение сторон : 16:9
Режим частоты кадров : Постоянный
Частота кадров : 25,000 кадров/сек
Цветовое пространство : YUV
Субдискретизация насыщенности : 4:2:0
Битовая глубина : 8 бит
Тип развёртки : Прогрессивная
Бит/(Пиксели*Кадры) : 0.112
Размер потока : 393 Мбайт (95%)
Библиотека кодирования : x264 core 142
Настройки программы : cabac=1 / ref=3 / deblock=1:0:0 / analyse=0x3:0x113 / me=hex / subme=7 / psy=1 / psy_rd=1.00:0.00 / mixed_ref=1 / me_range=16 / chroma_me=1 / trellis=1 / 8x8dct=1 / cqm=0 / deadzone=21,11 / fast_pskip=1 / chroma_qp_offset=-2 / threads=48 / lookahead_threads=5 / sliced_threads=0 / nr=0 / decimate=1 / interlaced=0 / bluray_compat=0 / constrained_intra=0 / bframes=6 / b_pyramid=2 / b_adapt=1 / b_bias=0 / direct=1 / weightb=1 / open_gop=0 / weightp=2 / keyint=200 / keyint_min=20 / scenecut=0 / intra_refresh=0 / rc_lookahead=40 / rc=2pass / mbtree=1 / bitrate=2569 / ratetol=1.0 / qcomp=0.60 / qpmin=0 / qpmax=69 / qpstep=4 / cplxblur=20.0 / qblur=0.5 / vbv_maxrate=3854 / vbv_bufsize=10279 / nal_hrd=none / filler=0 / ip_ratio=1.40 / aq=1:1.00
Язык : English
Дата пометки : UTC 2016-11-20 05:30:07

Аудио
Идентификатор : 2
Формат : AAC
Формат/Информация : Advanced Audio Codec
Профиль формата : LC
Идентификатор кодека : 40
Продолжительность : 21 м. 26 с.
Duration_LastFrame : 46 мс.
Вид битрейта : Постоянный
Битрейт : 128 Кбит/сек
Каналы : 2 канала
Расположение каналов : Front: L R
Частота : 44,1 КГц
Частота кадров : 43,066 кадра/сек (1024 spf)
Метод сжатия : С потерями
Размер потока : 19,7 Мбайт (5%)
Default : Да
Alternate group : 1
Дата пометки : UTC 2016-11-20 05:30:07

MI 326-576


Общее
Полное имя : D:\Downloads\326 серия.mp4
Формат : MPEG-4
Профиль формата : Base Media
Идентификатор кодека : isom (isom/iso2/avc1/mp41)
Размер файла : 395 Мбайт
Продолжительность : 25 м. 18 с.
Общий поток : 2183 Кбит/сек
Программа кодирования : Lavf55.48.100

Видео
Идентификатор : 1
Формат : AVC
Формат/Информация : Advanced Video Codec
Профиль формата : Main@L3.1
Параметр CABAC формата : Да
Параметр ReFrames формата : 5 кадров
Идентификатор кодека : avc1
Идентификатор кодека/Информация : Advanced Video Coding
Продолжительность : 25 м. 18 с.
Битрейт : 2048 Кбит/сек
Ширина : 1280 пикселей
Высота : 720 пикселей
Соотношение сторон : 16:9
Режим частоты кадров : Постоянный
Частота кадров : 25,000 кадров/сек
Цветовое пространство : YUV
Субдискретизация насыщенности : 4:2:0
Битовая глубина : 8 бит
Тип развёртки : Прогрессивная
Бит/(Пиксели*Кадры) : 0.089
Размер потока : 371 Мбайт (94%)
Библиотека кодирования : x264 core 142 r2455 021c0dc
Настройки программы : cabac=1 / ref=5 / deblock=1:0:0 / analyse=0x1:0x111 / me=umh / subme=8 / psy=1 / psy_rd=1.00:0.00 / mixed_ref=1 / me_range=16 / chroma_me=1 / trellis=1 / 8x8dct=0 / cqm=0 / deadzone=21,11 / fast_pskip=1 / chroma_qp_offset=-2 / threads=12 / lookahead_threads=2 / sliced_threads=0 / nr=0 / decimate=1 / interlaced=0 / bluray_compat=0 / constrained_intra=0 / bframes=3 / b_pyramid=2 / b_adapt=2 / b_bias=0 / direct=3 / weightb=1 / open_gop=0 / weightp=2 / keyint=25 / keyint_min=2 / scenecut=40 / intra_refresh=0 / rc_lookahead=25 / rc=abr / mbtree=1 / bitrate=2048 / ratetol=1.0 / qcomp=0.60 / qpmin=0 / qpmax=69 / qpstep=4 / ip_ratio=1.40 / aq=1:1.00
Язык : English

Аудио
Идентификатор : 2
Формат : AAC
Формат/Информация : Advanced Audio Codec
Профиль формата : LC
Идентификатор кодека : 40
Продолжительность : 25 м. 18 с.
Duration_LastFrame : -6 мс.
Вид битрейта : Постоянный
Битрейт : 128 Кбит/сек
Каналы : 2 канала
Расположение каналов : Front: L R
Частота : 44,1 КГц
Частота кадров : 43,066 кадра/сек (1024 spf)
Метод сжатия : С потерями
Размер потока : 23,2 Мбайт (6%)
Default : Да
AlternateGroup/String : 1
Скриншоты:


Детали торрента:
Название:Джодха и Акбар: История великой любви / Jodha Akbar (2013-2014) WEB-DL [H.264] (серии 207-576 из 576) [MP4|1280x720]
Дата добавления:21 Ноя 2017 08:42:09
Размер:128 GB
Раздают:3
Качают:0
Форум:Мобильное Видео

All rights reserved © 2015-2018