TORRENTS43.COM

Скачать Под солнцем Тосканы / Under the Tuscan Sun (2003) BDRip [H.264/1080p]


Под солнцем Тосканы / Under the Tuscan Sun (2003) BDRip [H.264/1080p]
Производство: США, Италия / Touchstone Pictures
Жанр: Драма, Мелодрама, Комедия

Режиссер: Одри Уэллс
Актеры: Дайан Лэйн, Сандра О, Линдсэй Дункан, Рауль Бова, Винсент Риотта, Марио Моничелли, Роберто Нобиле, Анита Дзагария, Эвелина Гори, Джулия Стайгерволт, Павел Жайда, Саша Вуличевич

Описание:
Тяжело переживая развод с мужем, писательница Фрэнсис Мэйс медленно погружается в пучину депрессии. Душевный кризис перетекает в творческий. Опустошенная и разбитая, Фрэнсис все же поддается на уговоры подруги и едет развеяться в Италию. Происходит настоящее чудо!
Ласковое южное солнце пробуждает в очарованной красотой Тосканы Фрэнсис страстное желание начать новую жизнь — именно здесь, в этом теплом и дружелюбном краю. Первым делом она покупает себе старинную виллу. Вторым — заводит новые знакомства. И она еще не ведает, что третье вскоре найдет ее само. И это будет новая, всепоглощающая любовь…



Продолжительность: 01:52:41
Качество видео: BDRip
Перевод: Профессиональный двухголосый, Авторский
Субтитры: Русские, Английские (SDH)

Видео: MPEG-4, AVC/H.264 1920 x 1040, ~24001 Kbps
Аудио #1: AC3, 192 Кбит/с, 48 kHz (2 ch) - Русский ( DVO , R5 )
Аудио #2: AC3, 448 Кбит/с, 48 kHz (6 ch) - Русский ( AVO, DDV2 )
Аудио #3: DTS, 1536 Кбит/с, 48 kHz (6 ch) - Русский ( AVO, С.Визгунов )
Аудио #4: DTS, 1536 Кбит/с, 48 kHz (6 ch) - Английский

Mediainfo:


Общее
Уникальный идентификатор : 228692843497792039664726313533077705408 (0xAC0CA3B8A0B54FBFA349E67FBC67D2C0)
Полное имя : D:\Кино\NNM\Под солнцем Тосканы.mkv
Формат : Matroska
Версия формата : Version 2
Размер файла : 21,8 Гбайт
Продолжительность : 1 ч. 52 м.
Общий поток : 27,7 Мбит/сек
Название фильма : Under the Tuscan Sun 2003
Дата кодирования : UTC 2012-10-25 14:45:21
Программа кодирования : mkvmerge v5.8.0 ('No Sleep / Pillow') built on Sep 2 2012 15:37:04
Библиотека кодирования : libebml v1.2.3 + libmatroska v1.3.0
Attachements : under-the-tuscan-sun1.jpg

Видео
Идентификатор : 1
Формат : AVC
Формат/Информация : Advanced Video Codec
Профиль формата : High@L4.1
Параметр CABAC формата : Да
Параметр ReFrames формата : 4 кадра
Идентификатор кодека : V_MPEG4/ISO/AVC
Продолжительность : 1 ч. 52 м.
Битрейт : 23,5 Мбит/сек
Ширина : 1920 пикселей
Высота : 1040 пикселей
Соотношение сторон : 1,85:1
Режим частоты кадров : Постоянный
Частота кадров : 23,976 кадра/сек
Цветовое пространство : YUV
Субдискретизация насыщенности : 4:2:0
Битовая глубина : 8 бит
Тип развёртки : Прогрессивная
Бит/(Пиксели*Кадры) : 0.490
Размер потока : 18,5 Гбайт (85%)
Заголовок : Under the Tuscan Sun
Библиотека кодирования : x264 core 128 r2216kMod 198a7ea
Настройки программы : cabac=1 / ref=4 / deblock=1:-3:-3 / analyse=0x3:0x133 / me=umh / subme=11 / psy=1 / fade_compensate=0.00 / psy_rd=1.05:0.00 / mixed_ref=1 / me_range=32 / chroma_me=1 / trellis=2 / 8x8dct=1 / cqm=0 / deadzone=21,11 / fast_pskip=0 / chroma_qp_offset=-2 / threads=6 / lookahead_threads=1 / sliced_threads=0 / nr=0 / decimate=1 / interlaced=0 / bluray_compat=0 / constrained_intra=0 / bframes=10 / b_pyramid=2 / b_adapt=2 / b_bias=0 / direct=3 / weightb=1 / open_gop=0 / weightp=2 / keyint=240 / keyint_min=23 / scenecut=40 / intra_refresh=0 / rc_lookahead=60 / rc=crf / mbtree=0 / crf=18.0000 / qcomp=0.70 / qpmin=0 / qpmax=69 / qpstep=4 / vbv_maxrate=50000 / vbv_bufsize=62500 / crf_max=0.0 / nal_hrd=none / ip_ratio=1.40 / pb_ratio=1.20 / aq=1:0.60
Язык : English
Default : Да
Forced : Нет
Color range : Limited
Коэффициенты матрицы : BT.709

Аудио #1
Идентификатор : 2
Формат : AC-3
Формат/Информация : Audio Coding 3
Расширение режима : CM (complete main)
Параметр Endianness формата : Big
Идентификатор кодека : A_AC3
Продолжительность : 1 ч. 52 м.
Вид битрейта : Постоянный
Битрейт : 192 Кбит/сек
Каналы : 2 канала
Расположение каналов : Front: L R
Частота : 48,0 КГц
Метод сжатия : С потерями
Размер потока : 155 Мбайт (1%)
Заголовок : R5
Язык : Russian
Default : Да
Forced : Нет

Аудио #2
Идентификатор : 3
Формат : AC-3
Формат/Информация : Audio Coding 3
Расширение режима : CM (complete main)
Параметр Endianness формата : Big
Идентификатор кодека : A_AC3
Продолжительность : 1 ч. 52 м.
Вид битрейта : Постоянный
Битрейт : 448 Кбит/сек
Каналы : 6 каналов
Расположение каналов : Front: L C R, Side: L R, LFE
Частота : 48,0 КГц
Метод сжатия : С потерями
Размер потока : 361 Мбайт (2%)
Заголовок : DDV2
Язык : Russian
Default : Нет
Forced : Нет

Аудио #3
Идентификатор : 4
Формат : DTS
Формат/Информация : Digital Theater Systems
Режим : 16
Параметр Endianness формата : Big
Идентификатор кодека : A_DTS
Продолжительность : 1 ч. 52 м.
Вид битрейта : Постоянный
Битрейт : 1509 Кбит/сек
Каналы : 6 каналов
Расположение каналов : Front: L C R, Side: L R, LFE
Частота : 48,0 КГц
Битовая глубина : 24 бит
Метод сжатия : С потерями
Размер потока : 1,19 Гбайт (5%)
Заголовок : С.Визгунов
Язык : Russian
Default : Нет
Forced : Нет

Аудио #4
Идентификатор : 5
Формат : DTS
Формат/Информация : Digital Theater Systems
Режим : 16
Параметр Endianness формата : Big
Идентификатор кодека : A_DTS
Продолжительность : 1 ч. 52 м.
Вид битрейта : Постоянный
Битрейт : 1509 Кбит/сек
Каналы : 6 каналов
Расположение каналов : Front: L C R, Side: L R, LFE
Частота : 48,0 КГц
Битовая глубина : 24 бит
Метод сжатия : С потерями
Размер потока : 1,19 Гбайт (5%)
Заголовок : Английский
Язык : English
Default : Нет
Forced : Нет

Текст #1
Идентификатор : 6
Формат : UTF-8
Идентификатор кодека : S_TEXT/UTF8
Идентификатор кодека/Информация : UTF-8 Plain Text
Заголовок : Русские
Язык : Russian
Default : Нет
Forced : Нет

Текст #2
Идентификатор : 7
Формат : UTF-8
Идентификатор кодека : S_TEXT/UTF8
Идентификатор кодека/Информация : UTF-8 Plain Text
Заголовок : Английские - SDH
Язык : English
Default : Нет
Forced : Нет

Меню
00:00:00.000 : en:Chapter 1
00:03:12.859 : en:Chapter 2
00:08:36.683 : en:Chapter 3
00:18:14.885 : en:Chapter 4
00:30:47.721 : en:Chapter 5
00:38:29.724 : en:Chapter 6
00:50:14.178 : en:Chapter 7
00:55:28.450 : en:Chapter 8
01:08:48.333 : en:Chapter 9
01:19:39.525 : en:Chapter 10
01:23:32.841 : en:Chapter 11
01:35:13.166 : en:Chapter 12
01:39:15.533 : en:Chapter 13
01:42:46.702 : en:Chapter 14

Дополнительная информация:

За исходник, большое спасибо Grimlen
Скриншоты:


Все одноименные релизы в Клубе

Смотреть Online

http://moonwalk.cc/video/eef8680b3f8a4c0c/iframe
Детали торрента:
Название:Под солнцем Тосканы / Under the Tuscan Sun (2003) BDRip [H.264/1080p]
Дата добавления:04 Апр 2017 07:10:27
Размер:21,8 GB
Раздают:
Качают:0
Форум:Зарубежные Фильмы (HD, UHD-LQ)

All rights reserved © 2015-2018