TORRENTS43.COM

Скачать Ограды / Fences (2016) BDRip [H.264/1080p]


Ограды / Fences (2016) BDRip [H.264/1080p]
Производство: США, Bron Studios, MACRO, Paramount Pictures, Scott Rudin Productions
Жанр: Драма

Режиссер: Дензел Вашингтон
Актеры: Дензел Вашингтон, Виола Дэвис, Майкелти Уильямсон, Расселл Хорнсби, Саня Сидни, Йован Адепо, Стивен Хендерсон, Туссэн Рафаэль Абессоло, Донтес Джеймс, Кристофер С. Меле

Описание:
Бывший бейсболист афро-американского происхождения, теперь собирающий мусор с улиц Питтсбурга, изо всех сил старается обеспечить свою семью в Америке 1950-х, где расовый вопрос все еще остается открытым.


Дата мировой премьеры: 16 декабря 2016
Дата российской премьеры: 111
Дата выхода DVD/Blu-ray релиза: 24 апреля 2017

Продолжительность: 02:18:51
Качество видео: BDRip 1080р
Перевод: Дублированный (iTunes)
Субтитры: Русские (Forced, Full), английские (Full, SDH)

Видео: AVC/H.264, 1920х804, ~11.2 Mbps
Аудио: AC3, 6 ch, 384 Kbps - Русский
Аудио: DTS, 6 ch, 1509 kbps - Английский

Mediainfo:


General
Unique ID : 214814417759139067415265165526161416436 (0xA19BC080C49AA3EE9FB22C024383E0F4)
Complete name : E:\Fences(2016)BDRip.1080p.mkv
Format : Matroska
Format version : Version 4 / Version 2
File size : 12.9 GiB
Duration : 2 h 18 min
Overall bit rate : 13.3 Mb/s
Encoded date : UTC 2017-04-05 19:24:06
Writing application : mkvmerge v10.0.0 ('To Drown In You') 64bit
Writing library : libebml v1.3.4 + libmatroska v1.4.5

Video
ID : 1
Format : AVC
Format/Info : Advanced Video Codec
Format profile : High@L4.1
Format settings, CABAC : Yes
Format settings, ReFrames : 5 frames
Codec ID : V_MPEG4/ISO/AVC
Duration : 2 h 18 min
Bit rate : 11.2 Mb/s
Width : 1 920 pixels
Height : 804 pixels
Display aspect ratio : 2.40:1
Frame rate mode : Constant
Frame rate : 23.976 (24000/1001) FPS
Color space : YUV
Chroma subsampling : 4:2:0
Bit depth : 8 bits
Scan type : Progressive
Bits/(Pixel*Frame) : 0.302
Stream size : 10.8 GiB (84%)
Writing library : x264 core 148 r2744kMod b97ae06
Encoding settings : cabac=1 / ref=5 / deblock=1:-3:-3 / analyse=0x3:0x133 / me=umh / subme=11 / psy=1 / fade_compensate=0.00 / psy_rd=1.05:0.00 / mixed_ref=1 / me_range=64 / chroma_me=1 / trellis=2 / 8x8dct=1 / cqm=0 / deadzone=21,11 / fast_pskip=0 / chroma_qp_offset=-2 / threads=12 / lookahead_threads=2 / sliced_threads=0 / nr=0 / decimate=0 / interlaced=0 / bluray_compat=0 / constrained_intra=0 / bframes=8 / b_pyramid=2 / b_adapt=2 / b_bias=0 / direct=3 / weightb=1 / open_gop=0 / weightp=2 / keyint=240 / keyint_min=2 / scenecut=40 / intra_refresh=0 / rc=crf / mbtree=0 / crf=17.0000 / qcomp=0.70 / qpmin=0 / qpmax=69 / qpstep=4 / ip_ratio=1.25 / pb_ratio=1.20 / aq=3:0.80
Language : English
Default : Yes
Forced : No

Audio #1
ID : 2
Format : AC-3
Format/Info : Audio Coding 3
Mode extension : CM (complete main)
Format settings, Endianness : Big
Codec ID : A_AC3
Duration : 2 h 18 min
Bit rate mode : Constant
Bit rate : 384 kb/s
Channel(s) : 6 channels
Channel positions : Front: L C R, Side: L R, LFE
Sampling rate : 48.0 kHz
Frame rate : 31.250 FPS (1536 spf)
Bit depth : 16 bits
Compression mode : Lossy
Stream size : 381 MiB (3%)
Title : iTunes
Language : Russian
Default : Yes
Forced : No

Audio #2
ID : 3
Format : DTS
Format/Info : Digital Theater Systems
Mode : 16
Format settings, Endianness : Big
Codec ID : A_DTS
Duration : 2 h 18 min
Bit rate mode : Constant
Bit rate : 1 509 kb/s
Channel(s) : 6 channels
Channel positions : Front: L C R, Side: L R, LFE
Sampling rate : 48.0 kHz
Frame rate : 93.750 FPS (512 spf)
Bit depth : 24 bits
Compression mode : Lossy
Stream size : 1.46 GiB (11%)
Title : Original
Language : English
Default : No
Forced : No

Text #1
ID : 4
Format : UTF-8
Codec ID : S_TEXT/UTF8
Codec ID/Info : UTF-8 Plain Text
Title : Forced
Language : Russian
Default : Yes
Forced : No

Text #2
ID : 5
Format : UTF-8
Codec ID : S_TEXT/UTF8
Codec ID/Info : UTF-8 Plain Text
Title : Full
Language : Russian
Default : No
Forced : No

Text #3
ID : 6
Format : UTF-8
Codec ID : S_TEXT/UTF8
Codec ID/Info : UTF-8 Plain Text
Title : Full
Language : English
Default : No
Forced : No

Text #4
ID : 7
Format : UTF-8
Codec ID : S_TEXT/UTF8
Codec ID/Info : UTF-8 Plain Text
Title : SDH
Language : English
Default : No
Forced : No

Menu
00:00:00.000 : en:Chapter 1
00:06:38.398 : en:Chapter 2
00:13:45.241 : en:Chapter 3
00:21:06.306 : en:Chapter 4
00:30:06.262 : en:Chapter 5
00:37:17.818 : en:Chapter 6
00:45:10.624 : en:Chapter 7
00:51:49.147 : en:Chapter 8
00:57:56.931 : en:Chapter 9
01:04:59.103 : en:Chapter 10
01:13:11.845 : en:Chapter 11
01:23:34.759 : en:Chapter 12
01:29:57.850 : en:Chapter 13
01:36:18.147 : en:Chapter 14
01:43:13.312 : en:Chapter 15
01:54:28.152 : en:Chapter 16
02:01:40.209 : en:Chapter 17
02:10:13.806 : en:Chapter 18
Скриншоты:


Все одноименные релизы в Клубе

Смотреть Online

http://moonwalk.cc/video/9f40ebffcdee337a/iframe
Детали торрента:
Название:Ограды / Fences (2016) BDRip [H.264/1080p]
Дата добавления:06 Апр 2017 12:38:09
Размер:12,9 GB
Раздают:8
Качают:7
Форум:Зарубежные Фильмы (HD, UHD-LQ)

All rights reserved © 2015-2018