TORRENTS43.COM

Скачать Формула 1. Сезон 2017. Гран-при Бахрейна. 3-й Этап. Свободная практика 2 (14.04.2017) HDTVRip [H.264/720p-LQ] [ hand made 50fps]


Формула 1. Сезон 2017. Гран-при Бахрейна. 3-й Этап. Свободная практика 2 (14.04.2017) HDTVRip [H.264/720p-LQ]
Телекомпания: Матч! Арена HD
Жанр: Спорт

Комментаторы: Алексей Попов, Наталья Фабричнова

Описание: 14 апреля 2017 года, пятница. 18:00 МСК
Формула 1. Сезон 2017. Гран-при Бахрейна. Сахир (Бахрейн). 3-й Этап
Свободная практика 2
Арена: Международный автодром Бахрейна (Сахир, Бахрейн)

Релиз от: Striker

Продолжительность: 01:39:37
Качество видео: HDTVRip
Язык озвучки: Русский
Субтитры: отсутствуют

Видео: AVC/H.264, 1280x720 (16:9), ~4015 Kbps, 50 fps
Аудио: AC3, 2 ch, 48 kHz, 192 Kbps

Mediainfo:


Общее
Уникальный идентификатор : 171454277625152225002426303895880416784 (0x80FCE48A6C1A48D9BDB0951FB1B93E10)
Полное имя : F:\SPORT\Формула 1\(14.04.2017)_F1.Round.03.Bahrain.Gran.Prix.2016.2Practice.HDTVRip.720p.mkv
Формат : Matroska
Версия формата : Version 4 / Version 2
Размер файла : 2,93 Гбайт
Продолжительность : 1 ч. 39 м.
Общий поток : 4210 Кбит/сек
Дата кодирования : UTC 2017-04-14 17:09:17
Программа кодирования : mkvmerge v10.0.0 ('To Drown In You') 32bit
Библиотека кодирования : libebml v1.3.4 + libmatroska v1.4.5 / Lavf54.63.104

Видео
Идентификатор : 1
Формат : AVC
Формат/Информация : Advanced Video Codec
Профиль формата : High@L4.1
Параметр CABAC формата : Да
Параметр ReFrames формата : 4 кадра
Идентификатор кодека : V_MPEG4/ISO/AVC
Продолжительность : 1 ч. 39 м.
Битрейт : 4015 Кбит/сек
Ширина : 1280 пикселей
Высота : 720 пикселей
Соотношение сторон : 16:9
Режим частоты кадров : Переменный
Частота кадров : 50,000 кадров/сек
Цветовое пространство : YUV
Субдискретизация насыщенности : 4:2:0
Битовая глубина : 8 бит
Тип развёртки : Прогрессивная
Бит/(Пиксели*Кадры) : 0.087
Размер потока : 2,79 Гбайт (95%)
Default : Нет
Forced : Нет
Цветовой диапазон : Limited
Основные цвета : BT.709
Характеристики трансфера : BT.709
Коэффициенты матрицы : BT.709

Аудио
Идентификатор : 2
Формат : AC-3
Формат/Информация : Audio Coding 3
Расширение режима : CM (complete main)
Параметр Endianness формата : Big
Идентификатор кодека : A_AC3
Продолжительность : 1 ч. 39 м.
Вид битрейта : Постоянный
Битрейт : 192 Кбит/сек
Каналы : 2 канала
Расположение каналов : Front: L R
Частота : 48,0 КГц
Частота кадров : 31,250 кадров/сек (1536 spf)
Битовая глубина : 16 бит
Метод сжатия : С потерями
Размер потока : 137 Мбайт (5%)
Язык : Russian
Default : Да
Forced : Нет
Скриншоты:



Детали торрента:
Название:Формула 1. Сезон 2017. Гран-при Бахрейна. 3-й Этап. Свободная практика 2 (14.04.2017) HDTVRip [H.264/720p-LQ] [ hand made 50fps]
Дата добавления:15 Апр 2017 17:36:09
Размер:2,93 GB
Раздают:
Качают:0
Форум:Архив Документалистики и TV

All rights reserved © 2015-2018