TORRENTS43.COM

Скачать Открытый микрофон (2017.04.21) SATRip (выпуск 13) [AD]


Открытый микрофон (2017.04.21) SATRip (выпуск 13)
Телекомпания: ТНТ
Жанр: Юмор
Ведущий: Андрей Бебуришвили
Жюри: Руслан Белый, Юлия Ахмедова, Слава Комиссаренко и Тимур Каргинов

Описание:
27 января на ТНТ начнется новое оригинальное юмористическое шоу талантов – «Открытый микрофон». Участниками проекта станут молодые (и не очень), никому неизвестные стендап-комики, которые будут бороться за возможность попасть в основной состав одного из самых популярных комедийных шоу в России – Stand Up на ТНТ. Несмотря на то, что многие участники «Открытого микрофона» не так давно занимаются стендапом, их выступления окажутся неожиданно смешными, свежими и непохожими на монологи комиков шоу Stand Up. Уже после отборочного тура станет ясно, что новички легко могут составить конкуренцию мэтрам в жанре стендап и даже перетянуть одеяло популярности на себя. Насколько реальна эта угроза - судить зрителям «Открытого микрофона».
«Открытый микрофон» - это не очередной развлекательный проект, это социальный лифт для комиков, работающих в самом сложном и откровенном юмористическом жанре. Все, о чем рассказывают эти ребята, основано на их реальной жизни и переживаниях. И здесь не может быть запретных тем или сторонней редактуры – только правда, только острые шутки, только стендап в «Открытом микрофоне» на ТНТ.

Продолжительность: 00:46:43
Качество видео: SATRip
Субтитры: Отсутствуют
Реклама: Присутствуют вставки текстовой рекламы

Видео: MPEG4, XviD, 720x400 (16:9), 25.000 fps, 1 800 Kbps (0.250 bit/pixel)
Аудио: MP3, 48.0 KHz, 2 ch, 128 Kbps, CBR

Mediainfo:

Код: выделить все
  Общее
Полное имя                               : D:\[1]\Открытый микрофон\Открытый микрофон. Выпуск 13 (2017.04.21).avi
Формат                                   : AVI
Формат/Информация                        : Audio Video Interleave
Размер файла                             : 647 Мбайт
Продолжительность                        : 46 м.
Общий поток                              : 1937 Кбит/сек
Программа кодирования                    : VirtualDubMod 1.5.10.3 | www.virtualdub-fr.org || (build 2550/release)
Библиотека кодирования                   : VirtualDubMod build 2550/release

Видео
Идентификатор                            : 0
Формат                                   : MPEG-4 Visual
Профиль формата                          : Advanced Simple@L5
Параметр BVOP формата                    : 2
Параметр QPel формата                    : Нет
Параметр GMC формата                     : Без точки перехода
Параметр матрицы формата                 : Default (H.263)
Идентификатор кодека                     : XVID
Идентификатор кодека/Подсказка           : XviD
Продолжительность                        : 46 м.
Битрейт                                  : 1800 Кбит/сек
Ширина                                   : 720 пикселей
Высота                                   : 400 пикселей
Соотношение сторон                       : 16:9
Частота кадров                           : 25,000 кадров/сек
Цветовое пространство                    : YUV
Субдискретизация насыщенности            : 4:2:0
Битовая глубина                          : 8 бит
Тип развёртки                            : Прогрессивная
Метод сжатия                             : С потерями
Бит/(Пиксели*Кадры)                      : 0.250
Размер потока                            : 601 Мбайт (93%)
Библиотека кодирования                   : XviD 1.2.1 (UTC 2008-12-04)

Аудио
Идентификатор                            : 1
Формат                                   : MPEG Audio
Версия формата                           : Version 1
Профиль формата                          : Layer 3
Режим                                    : Joint stereo
Расширение режима                        : MS Stereo
Идентификатор кодека                     : 55
Идентификатор кодека/Подсказка           : MP3
Продолжительность                        : 46 м.
Вид битрейта                             : Постоянный
Битрейт                                  : 128 Кбит/сек
Каналы                                   : 2 канала
Частота                                  : 48,0 КГц
Метод сжатия                             : С потерями
Размер потока                            : 42,8 Мбайт (7%)
Выравнивание                             : Соединение по промежуткам
Продолжительность промежутка             : 40  мс. (1,00 видеокадр)
Время предзагрузки промежутка            : 504  мс.
Библиотека кодирования                   : LAME3.99r
Настройки программы                      : -m j -V 4 -q 9 -lowpass 17 -b 128
 

Чтобы оказаться в финале и побороться за место в рядах самых крутых комиков страны, участникам шоу «Открытый микрофон» предстоит преодолеть несколько этапов:

· Отбор в команды
Начинающие комики выступят перед жюри со своим стендапом. Участник проходит в команду, если его выбрал хотя бы один из наставников. К концу этапа будет сформировано 4 команды по 8 человек, которые и начнут борьбу за главный приз проекта.
· Дуэли
Участникам предстоит поработать со своими наставниками и написать одно новое выступление. В каждой программе на сцену поднимутся по 2 участника от каждой команды. По итогам выступления наставник должен будет оставить в проекте только одного из них.
· Концерты
Каждая команда готовит концерт с участием всех комиков. Один выпуск – один концерт каждой команды. В конце программы наставник выберет того, кто покинет шоу.
· Полуфинал
Комики борются за право попасть в финал «Открытого микрофона». Как всегда, выступления им помогают готовить наставники. В финал проходят по два участника от каждой команды.
· Финал
8 финалистов выйдут на легендарную сцену проекта Stand Up на ТНТ! Каждый комик покажет свое финальное выступление. Члены жюри совместно выберут победителя первого сезона шоу «Открытый микрофон» и нового постоянного комика проекта StandUp на ТНТ!
Скриншоты:




Все одноименные релизы в Клубе
Детали торрента:
Название:Открытый микрофон (2017.04.21) SATRip (выпуск 13) [AD]
Дата добавления:21 Апр 2017 16:56:54
Размер:647 MB
Раздают:1
Качают:0
Форум:ПостКВН

All rights reserved © 2015-2018