TORRENTS43.COM

Скачать Circus Baobab - Les Tambours sauteurs (2005) DVDRip


Circus Baobab - Les Tambours sauteurs (2005) DVDRip
Год выпуска: 2005
Жанр: Концерт
Описание:
Это непревзойденное шоу уже видели жители Берлина, Парижа, Вены и Рима, где проходили выступления самого необычного в мире цирка - африканского... Единственного в Западной Африке, который называется «Баобаб».
Родина «Баобаба» - Гвинея. Эта республика долгое время была французской колонией, но и после приобретения независимости связь между нею и Францией сохранилась. Так что нет ничего удивительного в том, что своим существованием этот цирк обязан французу Лорану Шевалье.
Отсняв несколько фильмов о цирках в самых разных уголках нашей планеты, режиссер Лоран Шевалье в конце 90-х годов решил снять еще один такой же фильм в Западной Африке. Но оказалось, что там никакого цирка и в помине нет! И тогда он, недолго думая, взял да и основал его сам. Так вот и вышло, что сегодня «Баобаб» наряду с какао-бобами и алюминием - продукт экспорта Гвинейской республики...
Жонглеры подбрасывают в воздух булавы и апельсины, танцует обезьяний балет и летают воздушные акробаты... Выступление африканских артистов действительно завораживает - в первую очередь своей красотой.
Цирк «Баобаб» существует уже более 10 лет. И собирается познакомить с легендами африканского континента весь мир.
Продолжительность: 00:51:24
Видео: XviD, 2835 kbps, 720x576
Аудио: MP3 2.0, 192 kbps

MediaInfo

Код:

       Полное имя                               : Z:\Концерты\Circus_Baobab.avi
Формат                                   : AVI
Формат/Информация                        : Audio Video Interleave
Профиль формата                          : OpenDML
Размер файла                             : 1,09 Гбайт
Продолжительность                        : 51 м.
Общий поток                              : 3043 Кбит/сек
Программа кодирования                    : Lavf52.0.0

Видео
Идентификатор                            : 0
Формат                                   : xvid
Идентификатор кодека                     : xvid
Продолжительность                        : 51 м.
Битрейт                                  : 2835 Кбит/сек
Ширина                                   : 720 пикселей
Высота                                   : 576 пикселей
Соотношение сторон                       : 5:4
Частота кадров                           : 25,000 кадров/сек
Стандарт вещания                         : PAL
Бит/(Пиксели*Кадры)                      : 0.273
Размер потока                            : 1,02 Гбайт (93%)

Аудио
Идентификатор                            : 1
Формат                                   : MPEG Audio
Версия формата                           : Version 1
Профиль формата                          : Layer 3
Режим                                    : Joint stereo
Расширение режима                        : MS Stereo
Идентификатор кодека                     : 55
Идентификатор кодека/Подсказка           : MP3
Продолжительность                        : 51 м.
Вид битрейта                             : Постоянный
Битрейт                                  : 192 Кбит/сек
Каналы                                   : 2 канала
Частота                                  : 44,1 КГц
Метод сжатия                             : С потерями
Размер потока                            : 70,6 Мбайт (6%)
Выравнивание                             : Соединение по промежуткам
Продолжительность промежутка             : 26  мс. (0,65 видеокадр)         
Скриншоты:

Детали торрента:
Название:Circus Baobab - Les Tambours sauteurs (2005) DVDRip
Дата добавления:12 Фев 2009 12:13:10
Размер:1,09 GB
Раздают:1
Качают:0
Форум:Концерты

All rights reserved © 2015-2018