TORRENTS43.COM

Скачать Viola Valentino - Un Angelo Dal Cielo (1991) Compilation [APE|Lossless|image + .cue] <Italo-Disco, Synth-pop>


Viola Valentino - Un Angelo Dal Cielo (1991) Compilation
Жанр: Italo-Disco, Synth-pop
Ссылка: Discogs
Продолжительность: 00:54:57
Кодек: APE
Битрейт: Lossless
Тип рипа: image + .cue
Треклист:

01. Un Angelo Dal Cielo (03:35)
02. Romantici (03:53)
03. Arriva Arriva (04:29)
04. Sotto La Pioggia (03:32)
05. Anche Noi Facciamo Pace (03:41)
06. Addio Amor (03:49)
07. Il Posto Della Luna (04:11)
08. Comprami (03:56)
09. Sera Coi Fiocchi (03:42)
10. Verso Sud (04:02)
11. Sei Una Bomba (03:53)
12. Giorno Popolare (03:56)
13. Quasi Mezzanotte (04:29)
14. Sola (03:43)
.

Отчёт EAC:


EAC extraction logfile from 11. March 2007, 22:07 for CD
Viola Valentino / Un Angelo Dal Cielo

Used drive : PLEXTOR DVDR PX-760A Adapter: 4 ID: 0
Read mode : Secure with NO C2, accurate stream, disable cache
Combined read/write offset correction : 0
Overread into Lead-In and Lead-Out : No

Used output format : Internal WAV Routines
44.100 Hz; 16 Bit; Stereo

Other options :
Fill up missing offset samples with silence : Yes
Delete leading and trailing silent blocks : No
Installed external ASPI interface

Range status and errors
Selected range
Filename C:\Viola Valentino - Un Angelo Dal Cielo.wav

Peak level 92.0 %
Range quality 100.0 %
CRC F3C68697
Copy OK

No errors occured

End of status report

------------------------------------------------------------

EAC extraction logfile from 11. March 2007, 22:07 for CD
Viola Valentino / Un Angelo Dal Cielo

Used drive : PLEXTOR DVDR PX-760A Adapter: 4 ID: 0
Read mode : Secure with NO C2, accurate stream, disable cache
Combined read/write offset correction : 0
Overread into Lead-In and Lead-Out : No

Used output format : Internal WAV Routines
44.100 Hz; 16 Bit; Stereo

Other options :
Fill up missing offset samples with silence : Yes
Delete leading and trailing silent blocks : No
Installed external ASPI interface

Range status and errors
Selected range
Filename C:\Viola Valentino - Un Angelo Dal Cielo.wav

Peak level 92.0 %
Range quality 100.0 %
CRC F3C68697
Copy OK

No errors occured

End of status report

Cue Sheet (.cue):


REM GENRE Italiana
REM DISCID B50CE10E
REM COMMENT "ExactAudioCopy v0.95b4"
PERFORMER "Viola Valentino"
TITLE "Un Angelo Dal Cielo"
FILE "Viola Valentino - Un Angelo Dal Cielo.ape" WAVE
TRACK 01 AUDIO
TITLE "Un Angelo Dal Cielo"
PERFORMER "Viola Valentino"
INDEX 01 00:00:00
TRACK 02 AUDIO
TITLE "Romantici"
PERFORMER "Viola Valentino"
INDEX 00 03:34:19
INDEX 01 03:35:07
TRACK 03 AUDIO
TITLE "Arriva Arriva"
PERFORMER "Viola Valentino"
INDEX 00 07:27:66
INDEX 01 07:28:10
TRACK 04 AUDIO
TITLE "Sotto La Pioggia"
PERFORMER "Viola Valentino"
INDEX 00 11:56:36
INDEX 01 11:57:10
TRACK 05 AUDIO
TITLE "Anche Noi Facciamo Pace"
PERFORMER "Viola Valentino"
INDEX 00 15:28:68
INDEX 01 15:29:62
TRACK 06 AUDIO
TITLE "Addio Amor"
PERFORMER "Viola Valentino"
INDEX 00 19:11:39
INDEX 01 19:11:57
TRACK 07 AUDIO
TITLE "Il Posto Della Luna"
PERFORMER "Viola Valentino"
INDEX 00 23:00:67
INDEX 01 23:01:20
TRACK 08 AUDIO
TITLE "Comprami"
PERFORMER "Viola Valentino"
INDEX 00 27:10:47
INDEX 01 27:12:57
TRACK 09 AUDIO
TITLE "Sera Coi Fiocchi"
PERFORMER "Viola Valentino"
INDEX 00 31:08:31
INDEX 01 31:09:10
TRACK 10 AUDIO
TITLE "Verso Sud"
PERFORMER "Viola Valentino"
INDEX 00 34:50:61
INDEX 01 34:51:62
TRACK 11 AUDIO
TITLE "Sei Una Bomba"
PERFORMER "Viola Valentino"
INDEX 00 38:53:38
INDEX 01 38:54:27
TRACK 12 AUDIO
TITLE "Giorno Popolare"
PERFORMER "Viola Valentino"
INDEX 00 42:47:21
INDEX 01 42:48:00
TRACK 13 AUDIO
TITLE "Quasi Mezzanotte"
PERFORMER "Viola Valentino"
INDEX 00 46:44:27
INDEX 01 46:44:55
TRACK 14 AUDIO
TITLE "Sola"
PERFORMER "Viola Valentino"
INDEX 00 51:13:11
INDEX 01 51:14:27

Отчёт auCDtect Task manager:


-----------------------

DON'T MODIFY THIS FILE

-----------------------

PERFORMER: auCDtect Task Manager, ver. 1.6.0 RC1 build 1.6.0.1
Copyright (c) 2008-2010 y-soft. All rights reserved
http://y-soft.org

ANALYZER: auCDtect: CD records authenticity detector, version 0.8.2
Copyright (c) 2004 Oleg Berngardt. All rights reserved.
Copyright (c) 2004 Alexander Djourik. All rights reserved.

FILE: Viola Valentino - Un Angelo Dal Cielo.ape
Size: 351528848 Hash: 3DC8E73FB7E7AA8C0B3A8E4A2560D903 Accuracy: -m0
Conclusion: CDDA 100%
Signature: 42D326C551138D3BE3DEB517C6D96C8C0D827A2E
YouTube YouTube YouTube YouTube
Детали торрента:
Название:Viola Valentino - Un Angelo Dal Cielo (1991) Compilation [APE|Lossless|image + .cue] <Italo-Disco, Synth-pop>
Дата добавления:01 Май 2017 16:04:29
Размер:336 MB
Раздают:2
Качают:0
Форум:Зарубежная поп-музыка (Lossless)

All rights reserved © 2015-2018