TORRENTS43.COM

Скачать Отель «Бо Сежур» / Beau Sejour (2016) HDTVRip [H.264/720p-LQ] (сезон 1, серии 1-10 из 10)


Отель «Бо Сежур» / Beau Sjour (2016) HDTVRip [H.264/720p-LQ] (сезон 1, серии 1-10 из 10)
Производство: Бельгия / deMENSEN
Жанр: Мистика, триллер, драма

Режиссер: Натали Бастинс, Каат Билс
Актеры: Линн Ван Ройен, Инге Паулуссен, Ян Хамменекер, Крис Куппенс, Йохан ван Ассхе, Катрин Ломанн, Мике Де Грооте и др.

Описание:
19-летняя Като приходит в себя в одном из номеров отеля "Бо Сежур" и обнаруживает в ванной номера свой окровавленный труп. Като осознает, что она - лишь дух и решает найти того, кто её убил. Проводя свое расследование. она узнает немало тайн, которые скрывает её мирная деревня.


Продолжительность: ~00:50:00 серия
Качество видео: HDTVRip
Перевод: Многоголосый закадровый, любительский (ViruseProject)

Видео: AVC/H.264, 1280x720 (16:9), ~1971 Kbps
Аудио 1: AC3, 2 ch, 192 kbps - русский, многоголосый закадровый
Аудио 2: AC3, 2 ch, 192 kbps - французский

Mediainfo:


General
Unique ID : 191323544991202732650007842223348412234 (0x8FEF930E4507D384BC81DE02A0566F4A)
Complete name : D:\1_ENGLISH\Отель Бо Сежур S01 720p ViruseProject\Beau Sejour 720p ViruseProject\Beau_Sejour_720p_01.mkv
Format : Matroska
Format version : Version 4 / Version 2
File size : 833 MiB
Duration : 49 min 26 s
Overall bit rate : 2 356 kb/s
Encoded date : UTC 2017-03-29 14:19:40
Writing application : mkvmerge v8.3.0 ('Over the Horizon') 64bit
Writing library : libebml v1.3.1 + libmatroska v1.4.2

Video
ID : 1
Format : AVC
Format/Info : Advanced Video Codec
Format profile : High@L3.1
Format settings, CABAC : Yes
Format settings, ReFrames : 3 frames
Codec ID : V_MPEG4/ISO/AVC
Duration : 49 min 25 s
Bit rate : 1 971 kb/s
Width : 1 280 pixels
Height : 720 pixels
Display aspect ratio : 16:9
Frame rate mode : Constant
Frame rate : 25.000 FPS
Color space : YUV
Chroma subsampling : 4:2:0
Bit depth : 8 bits
Scan type : Progressive
Bits/(Pixel*Frame) : 0.086
Stream size : 697 MiB (84%)
Writing library : x264 core 79 r1342kMod e8501ef
Encoding settings : cabac=1 / ref=3 / deblock=1:0:0 / analyse=0x3:0x113 / me=hex / subme=7 / psy=1 / psy_rd=1.0:0.0 / mixed_ref=1 / me_range=16 / chroma_me=1 / trellis=1 / 8x8dct=1 / cqm=0 / deadzone=21,11 / chroma_qp_offset=-2 / threads=12 / nr=0 / decimate=1 / mbaff=0 / constrained_intra=0 / bframes=3 / b_pyramid=0 / b_adapt=1 / b_bias=0 / direct=1 / wpredb=1 / wpredp=2 / keyint=250 / keyint_min=25 / scenecut=40 / rc_lookahead=40 / rc=2pass / mbtree=1 / bitrate=1971 / ratetol=1.0 / qcomp=0.60 / qpmin=10 / qpmax=51 / qpstep=4 / cplxblur=20.0 / qblur=0.5 / ip_ratio=1.40 / aq=1:1.00
Default : Yes
Forced : No

Audio #1
ID : 2
Format : AC-3
Format/Info : Audio Coding 3
Mode extension : CM (complete main)
Format settings, Endianness : Big
Codec ID : A_AC3
Duration : 49 min 26 s
Bit rate mode : Constant
Bit rate : 192 kb/s
Channel(s) : 2 channels
Channel positions : Front: L R
Sampling rate : 48.0 kHz
Frame rate : 31.250 FPS (1536 spf)
Bit depth : 16 bits
Compression mode : Lossy
Stream size : 67.9 MiB (8%)
Title : ViruseProject
Language : Russian
Default : Yes
Forced : No

Audio #2
ID : 3
Format : AC-3
Format/Info : Audio Coding 3
Mode extension : CM (complete main)
Format settings, Endianness : Big
Codec ID : A_AC3
Duration : 49 min 26 s
Bit rate mode : Constant
Bit rate : 192 kb/s
Channel(s) : 2 channels
Channel positions : Front: L R
Sampling rate : 48.0 kHz
Frame rate : 31.250 FPS (1536 spf)
Bit depth : 16 bits
Compression mode : Lossy
Stream size : 67.9 MiB (8%)
Title : org
Language : French
Default : No
Forced : No
Скриншоты:


Дополнительные скриншоты:



Все одноименные релизы в Клубе

Смотреть Online

http://moonwalk.cc/serial/8bc0ff0d88d3edda85025a65eabc1acc/iframe
Детали торрента:
Название:Отель «Бо Сежур» / Beau Sejour (2016) HDTVRip [H.264/720p-LQ] (сезон 1, серии 1-10 из 10)
Дата добавления:02 Май 2017 19:44:54
Размер:8,94 GB
Раздают:
Качают:0
Форум:Зарубежные сериалы

All rights reserved © 2015-2018