TORRENTS43.COM

Скачать Дмитрий Воронов | Оформитель социальных сетей (2017) PCRec


Дмитрий Воронов | Оформитель социальных сетей (2017) PCRec
Автор (режиссер): Дмитрий Воронов
Жанр: Обучающее видео

Описание:
Экспресс-курс по очень популярной специальности — оформление групп и пабликов в соцсетях, каналов на ютубе, в одноклассниках и фейсбуке.
План курса:
-Xara Designer и основные инструменты программы
-Форматы экспорта изображений, алгоритмы сжатия, ошибки и сложности
-Основные элементы соцсетей — аватар, шапка, товары, посты, фотогалереи, офферы
-Экспорт изображений для сети: размеры, пиксели, dpi, ppi, экранный dpi
-ЯндексДиск, облачное хранение данных, общий доступ
-Систематизация изображений, клипарты, поиск изображений
-Каналы взаимодействия с заказчиком, почта, учет, заказы и отчеты
-Оформление группы и паблика вконтакте — отличия и особенности
-Использование шаблонов для оформления, правила и ошибки
-Поиск уникальных картинок, авторские права, наказание, обходы
-Шаблоны для Facebook, особенности этой сейти, шапка профиля
-Шаблоны для OK — оформление личных профилей и групп в Одноклассниках
-Google и его сервисы — Youtube, G+, Документы, Android, Photos, Презентации
-Создание серии публикаций для любой сети — правила и шаблонизация

Продолжительность: 21:52:09
Качество видео: PCRec

Видео: AVC/H.264, 1920x1080, ~1 348 kb/s
Аудио: AAC, 2 ch, 126 kbps

Mediainfo:


General
Complete name : E:\torrents\Voronov_Oform_soc_setej_2017\2\01-3 Графический дизайнер. Урок 4. Векторные редакторы.mp4
Format : MPEG-4
Format profile : Base Media
Codec ID : isom (isom/iso2/avc1/mp41)
File size : 262 MiB
Duration : 24 min 40 s
Overall bit rate : 1 482 kb/s
Writing application : Lavf57.2.100

Video
ID : 1
Format : AVC
Format/Info : Advanced Video Codec
Format profile : High@L4
Format settings, CABAC : Yes
Format settings, ReFrames : 2 frames
Codec ID : avc1
Codec ID/Info : Advanced Video Coding
Duration : 24 min 40 s
Bit rate : 1 348 kb/s
Width : 1 920 pixels
Height : 1 080 pixels
Display aspect ratio : 16:9
Frame rate mode : Constant
Frame rate : 30.000 FPS
Color space : YUV
Chroma subsampling : 4:2:0
Bit depth : 8 bits
Scan type : Progressive
Bits/(Pixel*Frame) : 0.022
Stream size : 238 MiB (91%)
Color range : Limited
Color primaries : BT.709
Transfer characteristics : BT.709
Matrix coefficients : BT.709

Audio
ID : 2
Format : AAC
Format/Info : Advanced Audio Codec
Format profile : LC
Codec ID : 40
Duration : 24 min 40 s
Bit rate mode : Constant
Bit rate : 126 kb/s
Channel(s) : 2 channels
Channel positions : Front: L R
Sampling rate : 44.1 kHz
Frame rate : 43.066 FPS (1024 spf)
Compression mode : Lossy
Stream size : 22.2 MiB (8%)
Default : Yes
Alternate group : 1
Скриншоты:


Детали торрента:
Название:Дмитрий Воронов | Оформитель социальных сетей (2017) PCRec
Дата добавления:02 Май 2017 23:35:50
Размер:10 GB
Раздают:4
Качают:0
Форум:Дизайн

All rights reserved © 2015-2018